<?xml version="1.0" standalone="no"?>
<!DOCTYPE svg PUBLIC "-//W3C//DTD SVG 1.1//EN" "http://www.w3.org/Graphics/SVG/1.1/DTD/svg11.dtd" >
<svg>
<metadata>
Created by FontForge 20110222 at Mon Mar  7 13:19:39 2011
 By www-data
Copyright (c) Boutros International, 2005. All rights reserved.
</metadata>
<defs>
<font id="GEDinarTwo-LightItalic" horiz-adv-x="256" >
  <font-face 
    font-family="GE Dinar Two"
    font-weight="300"
    font-style="italic"
    font-stretch="normal"
    units-per-em="1000"
    panose-1="2 10 5 3 2 1 2 2 2 4"
    ascent="800"
    descent="-200"
    bbox="-141 -220 968 708"
    underline-thickness="50"
    underline-position="-50"
    unicode-range="U+0020-FEEC"
  />
    <missing-glyph />
    <glyph glyph-name="hehmedialarabic" unicode="&#x647;" horiz-adv-x="613" arabic-form="medial" 
d="M627 0l-12 48h-68l-52 207c-14 57 -50 101 -109 131c-48 25 -106 37 -173 37c-65 0 -118 -10 -162 -31l3 -44c41 21 91 31 149 31s107 -11 147 -33c47 -25 76 -61 88 -109l48 -189h-96l-39 163c-9 35 -28 64 -58 86c-26 19 -57 29 -90 29c-45 0 -79 -16 -103 -48
c-28 -37 -35 -87 -21 -151c5 -30 16 -56 32 -79h-136l11 -48h641zM340 48h-99c-67 0 -96 23 -114 94c-12 47 -8 85 12 114c14 25 37 38 68 38c47 0 77 -25 90 -76z" />
    <glyph glyph-name="qaffinalarabic" unicode="&#x642;" horiz-adv-x="686" arabic-form="final" 
d="M366 601c-7 25 -32 45 -57 45c-29 0 -40 -15 -33 -44c8 -29 26 -43 55 -43c30 0 42 14 35 42zM233 601c-7 25 -32 45 -55 45c-29 0 -40 -15 -33 -44c8 -29 26 -43 55 -43s40 14 33 42zM704 0l-12 48h-115l-94 376h-128c-63 0 -110 -22 -139 -66s-34 -102 -16 -175
c14 -58 42 -104 81 -138c37 -30 80 -45 127 -45h119c31 -127 -11 -190 -127 -190c-73 0 -136 23 -188 68c-60 50 -101 124 -126 223l-18 74h-57l19 -76c51 -207 181 -319 369 -319c163 0 226 73 190 220h115zM515 48h-104c-76 0 -127 52 -153 155c-29 116 6 189 99 189h72z
" />
    <glyph glyph-name="kaffinalarabic" unicode="&#x643;" horiz-adv-x="941" arabic-form="final" 
d="M484 322l-52 38l-40 -5h-100l-6 26c-18 72 2 108 60 108c19 0 39 -6 59 -19l2 -2l7 17l-2 1c-31 24 -63 36 -95 36c-71 0 -96 -44 -73 -133l8 -34h-58l8 -33h282zM968 0l-12 48h-73c-62 0 -102 36 -120 107l-123 491l-71 -19l48 -126l86 -346c18 -71 -4 -107 -65 -107
h-415c-85 0 -157 74 -186 189c-11 45 -10 82 2 112h-40c-11 -38 -10 -83 2 -134c33 -132 121 -215 224 -215h449c43 0 71 14 87 42c30 -28 67 -42 111 -42h96z" />
    <glyph glyph-name="zainarabic" unicode="&#x632;" horiz-adv-x="230" arabic-form="isolated" 
d="M39 601c-7 25 -32 45 -55 45c-29 0 -40 -15 -33 -44c8 -29 26 -43 54 -43c29 0 41 14 34 42zM167 38l-96 386l-71 -19l46 -126l69 -275c9 -37 8 -71 -3 -104c-15 -43 -45 -74 -91 -93l22 -27c117 35 158 121 124 258z" />
    <glyph glyph-name="space" unicode=" " horiz-adv-x="162" 
 />
    <glyph glyph-name="guillemotleft" unicode="&#xab;" horiz-adv-x="371" 
d="M199 468h-53c-34 -74 -40 -152 -20 -234c20 -79 65 -156 136 -233h52c-60 85 -99 163 -117 232c-17 69 -16 148 2 235zM68 468h-52c-33 -74 -39 -152 -19 -234c19 -79 63 -156 133 -233h54c-60 85 -99 163 -117 232c-17 69 -16 148 1 235z" />
    <glyph glyph-name="guillemotright" unicode="&#xbb;" horiz-adv-x="371" 
d="M257 234c-20 82 -66 160 -136 234h-53c62 -87 101 -166 118 -235c18 -69 17 -147 -1 -232h54c32 77 38 154 18 233zM126 234c-20 82 -66 160 -134 234h-53c61 -87 100 -166 117 -235c18 -69 17 -147 -2 -232h53c32 77 39 154 19 233z" />
    <glyph glyph-name="divide" unicode="&#xf7;" horiz-adv-x="496" 
d="M384 227h-385l8 -37h386zM277 62c-7 29 -38 52 -65 52c-29 0 -45 -25 -38 -52c9 -34 30 -51 64 -51c31 0 46 24 39 51zM204 355c-7 28 -38 52 -65 52c-29 0 -45 -25 -38 -52c8 -34 30 -51 64 -51c31 0 46 24 39 51z" />
    <glyph glyph-name="exclam" unicode="!" horiz-adv-x="301" 
d="M14 479l-41 167h-68l42 -167l94 -293h26zM134 48c-7 27 -34 48 -58 48c-28 0 -42 -24 -36 -48c8 -32 28 -48 60 -48c31 0 42 16 34 48z" />
    <glyph glyph-name="quotedbl" unicode="&#x22;" 
d="M-45 646h-61l53 -161h37zM48 646h-60l52 -161h37z" />
    <glyph glyph-name="dollar" unicode="$" horiz-adv-x="684" 
d="M376 172c-13 49 -40 88 -83 118c-29 20 -74 41 -137 63l-59 237c41 0 79 -9 112 -26l42 -97h41l-44 133c-58 19 -111 28 -160 28l-20 80h-33l20 -81c-50 -7 -85 -28 -105 -62c-20 -30 -25 -66 -14 -108c11 -45 37 -81 76 -109c25 -19 68 -38 127 -58l63 -250
c-29 0 -66 9 -108 26l-40 94h-41l43 -134c56 -18 108 -27 156 -27l20 -83h33l-20 84c101 13 154 80 131 172zM120 366c-76 28 -120 67 -132 116c-14 59 12 93 77 104zM321 152c15 -60 -14 -97 -87 -110l-59 235c41 -16 72 -31 90 -44c29 -21 47 -48 56 -81z" />
    <glyph glyph-name="quotesingle" unicode="'" horiz-adv-x="0" 
d="M-45 646h-61l53 -161h37z" />
    <glyph glyph-name="parenright" unicode=")" horiz-adv-x="281" 
d="M187 231c-40 161 -142 295 -304 403l-17 -23c72 -59 126 -117 165 -174c39 -59 69 -128 89 -206c36 -143 14 -270 -66 -379l29 -23c109 107 144 241 104 402z" />
    <glyph glyph-name="parenleft" unicode="(" horiz-adv-x="281" 
d="M300 -146c-72 59 -127 117 -165 172c-41 59 -71 128 -90 205c-20 78 -24 147 -13 207c11 57 37 115 79 173l-29 23c-109 -107 -143 -241 -103 -403c39 -161 140 -295 304 -402z" />
    <glyph glyph-name="multiply" unicode="&#xd7;" horiz-adv-x="423" 
d="M349 73l-166 132l93 124l-32 26l-93 -124l-158 129l-21 -27l160 -129l-93 -123l33 -26l92 123l166 -133z" />
    <glyph glyph-name="plus" unicode="+" horiz-adv-x="496" 
d="M380 242l-9 37h-174l-45 182h-38l45 -182h-173l9 -37h173l47 -187h38l-47 187h174z" />
    <glyph glyph-name="hyphen" unicode="-" horiz-adv-x="570" 
d="M467 189l-9 37h-459l8 -37h460z" />
    <glyph glyph-name="period" unicode="." horiz-adv-x="211" 
d="M143 51c-7 29 -36 52 -64 52s-44 -25 -37 -52c8 -34 30 -51 63 -51c32 0 45 24 38 51z" />
    <glyph glyph-name="slash" unicode="/" horiz-adv-x="271" 
d="M102 598l-40 13l-45 -608l40 -13z" />
    <glyph glyph-name="fourarabic" unicode="&#x664;" horiz-adv-x="515" 
d="M449 0l-62 68l-86 -13l-84 1c-27 1 -52 11 -76 30c-31 23 -51 56 -62 100c-11 43 -5 76 16 99c15 16 32 24 51 24l148 2l-14 55h-139c-19 0 -40 9 -64 28c-28 23 -47 52 -56 89c-18 72 6 108 72 108h38l92 -13l30 68h-178c-46 0 -78 -14 -99 -41
c-24 -30 -30 -71 -17 -122c11 -42 35 -78 71 -107c32 -24 57 -35 77 -34c-28 3 -51 -10 -71 -38c-23 -33 -28 -73 -16 -122c14 -54 40 -98 77 -132c38 -33 81 -50 126 -50h226z" />
    <glyph glyph-name="colon" unicode=":" horiz-adv-x="211" 
d="M90 261c-7 29 -36 51 -61 51c-30 0 -46 -23 -39 -51c9 -33 29 -50 64 -50c33 0 45 17 36 50zM145 41c-7 29 -37 52 -62 52c-31 0 -46 -24 -39 -52c9 -34 30 -51 65 -51c29 0 43 24 36 51z" />
    <glyph glyph-name="greater" unicode="&#x3e;" horiz-adv-x="410" 
d="M63 -41l176 233l-292 234h68l293 -234l-176 -233h-69z" />
    <glyph glyph-name="equal" unicode="=" horiz-adv-x="485" 
d="M369 242l-9 37h-374l9 -37h374zM401 116l-10 39h-375l10 -39h375z" />
    <glyph glyph-name="less" unicode="&#x3c;" horiz-adv-x="410" 
d="M367 -41l-292 233l175 234h-69l-175 -234l292 -233h69z" />
    <glyph glyph-name="bracketright" unicode="]" horiz-adv-x="215" 
d="M201 -167l-201 805h-141l6 -23l82 -15l32 -92l134 -544l14 -91l-74 -15l6 -25h142z" />
    <glyph glyph-name="backslash" unicode="\" horiz-adv-x="271" 
d="M252 3l-348 608l-35 -13l349 -608z" />
    <glyph glyph-name="bracketleft" unicode="[" horiz-adv-x="212" 
d="M240 -167l-6 25l-83 15l-32 91l-134 544l-14 92l74 15l-6 23h-143l200 -805h144z" />
    <glyph glyph-name="underscore" unicode="_" horiz-adv-x="341" 
d="M376 -85l-13 49h-368l12 -49h369z" />
    <glyph glyph-name="braceright" unicode="}" horiz-adv-x="303" 
d="M193 219l-9 34l-35 8c-30 7 -50 28 -58 63l-45 178c-21 87 -77 133 -137 133h-46l7 -27l32 -6c45 -5 73 -34 86 -86l48 -196c10 -42 32 -67 65 -75l37 -10l-35 -9c-27 -8 -36 -32 -26 -71l49 -199c13 -52 0 -81 -42 -87l-30 -5l7 -27h46c60 0 93 48 72 132l-44 177
c-9 36 0 58 27 65z" />
    <glyph glyph-name="bar" unicode="|" horiz-adv-x="130" 
d="M84 -162h53l-194 780h-53z" />
    <glyph glyph-name="braceleft" unicode="{" horiz-adv-x="297" 
d="M282 -163l-7 27l-32 5c-44 6 -74 35 -86 86l-49 196c-11 42 -33 67 -66 76l-37 8l34 10c28 8 37 32 27 73l-49 198c-13 52 2 81 43 86l30 6l-7 26h-48c-59 0 -91 -45 -70 -132l44 -178c8 -35 0 -56 -27 -63l-30 -8l9 -34l34 -8c30 -7 49 -29 58 -65l44 -177
c11 -43 30 -76 57 -99c23 -22 50 -33 80 -33h48z" />
    <glyph glyph-name="zero" unicode="0" horiz-adv-x="216" 
d="M126 96l-25 97l-78 -21l24 -97z" />
    <glyph glyph-name="one" unicode="1" horiz-adv-x="216" 
d="M-11 646l-79 -20l40 -99l131 -527l49 48l-120 479z" />
    <glyph glyph-name="two" unicode="2" horiz-adv-x="494" 
d="M266 646h-361l161 -646h60l-145 591h164l92 -13z" />
    <glyph glyph-name="three" unicode="3" horiz-adv-x="552" 
d="M377 435l-53 211l-68 -18l37 -95l21 -85c11 -43 -2 -65 -38 -65c-21 0 -45 12 -72 36l-57 227l-67 -18l36 -95l21 -85c11 -43 -2 -65 -39 -65c-20 0 -45 14 -77 41l-55 222l-56 -18l156 -628h60l-91 366c30 -25 61 -37 94 -37c39 0 64 15 73 46c33 -31 67 -46 104 -46
c57 0 87 41 71 106z" />
    <glyph glyph-name="four" unicode="4" horiz-adv-x="515" 
d="M449 0l-62 68l-86 -13l-84 1c-27 1 -52 11 -76 30c-31 23 -51 56 -62 100c-11 43 -5 76 16 99c15 16 32 24 51 24l148 2l-14 55h-139c-19 0 -40 9 -64 28c-28 23 -47 52 -56 89c-18 72 6 108 72 108h38l92 -13l30 68h-178c-46 0 -78 -14 -99 -41
c-24 -30 -30 -71 -17 -122c11 -42 35 -78 71 -107c32 -24 57 -35 77 -34c-28 3 -51 -10 -71 -38c-23 -33 -28 -73 -16 -122c14 -54 40 -98 77 -132c38 -33 81 -50 126 -50h226z" />
    <glyph glyph-name="five" unicode="5" horiz-adv-x="485" 
d="M299 479c-40 13 -83 19 -128 19c-71 0 -121 -22 -151 -67c-29 -45 -35 -105 -17 -180c16 -63 43 -113 82 -150c40 -31 77 -46 110 -46c135 0 188 57 159 172l-38 154zM255 375c17 -45 29 -81 36 -108c27 -109 0 -164 -83 -164c-65 0 -123 69 -148 168
c-14 57 -14 101 0 134c16 37 50 56 99 56c19 0 41 -4 67 -11z" />
    <glyph glyph-name="six" unicode="6" horiz-adv-x="493" 
d="M427 0l-162 646h-360l62 -68l85 13h167l148 -591h60z" />
    <glyph glyph-name="seven" unicode="7" horiz-adv-x="633" 
d="M405 646h-87l-13 -602l-266 510l-48 92h-86l69 -92l218 -409l83 -145h82l10 145l14 409z" />
    <glyph glyph-name="eight" unicode="8" horiz-adv-x="633" 
d="M567 0l-70 92l-218 409l-84 145h-82l-9 -145l-15 -409l-23 -92h86l13 604l266 -512l49 -92h87z" />
    <glyph glyph-name="nine" unicode="9" horiz-adv-x="428" 
d="M200 646h-110c-55 0 -94 -19 -119 -57c-25 -37 -30 -87 -14 -150c26 -105 92 -168 172 -168c40 2 73 11 97 26l75 -297h61zM216 340c-28 -11 -53 -16 -76 -16c-61 0 -108 52 -129 135c-22 92 6 153 81 153h56z" />
    <glyph glyph-name="quotedblleft" unicode="&#x201c;" 
d="M27 484h61l-52 161h-36zM-66 484h61l-52 161h-37z" />
    <glyph glyph-name="quotedblright" unicode="&#x201d;" 
d="M-45 646h-61l53 -161h37zM48 646h-60l52 -161h37z" />
    <glyph glyph-name="nbspace" unicode="&#xa0;" horiz-adv-x="623" 
 />
    <glyph glyph-name="at" unicode="*" horiz-adv-x="453" 
d="M382 129l-181 74l144 74l-43 52l-119 -104l-27 177h-61l62 -177l-171 104l-17 -52l181 -74l-145 -74l43 -52l121 102l26 -176h61l-61 176l170 -102z" />
  </font>
</defs>
</svg>
