<?xml version="1.0" standalone="no"?>
<!DOCTYPE svg PUBLIC "-//W3C//DTD SVG 1.1//EN" "http://www.w3.org/Graphics/SVG/1.1/DTD/svg11.dtd" >
<svg xmlns="http://www.w3.org/2000/svg" xmlns:xlink="http://www.w3.org/1999/xlink" version="1.1">
<metadata>
Created by FontForge 20170731 at Wed May  3 09:45:33 2023
 By Aleksey,,,
</metadata>
<defs>
<font id="GEDinarTwo-Light" horiz-adv-x="524" >
  <font-face 
    font-family="GE Dinar Two"
    font-weight="300"
    font-stretch="normal"
    units-per-em="2048"
    panose-1="2 10 5 3 2 1 2 2 2 4"
    ascent="1638"
    descent="-410"
    bbox="-55 -451 1982 1450"
    underline-thickness="102"
    underline-position="-204"
    unicode-range="U+0020-FEEC"
  />
<missing-glyph horiz-adv-x="256" 
 />
    <glyph glyph-name="hehmedialarabic" unicode="&#x647;" horiz-adv-x="1255" arabic-form="medial" 
d="M1284 0v98h-139v424q0 178 -156 269q-126 75 -336 75q-201 0 -348 -63l-16 -90q141 63 321 63q178 0 285 -67q125 -76 125 -224v-387h-197l4 334q0 109 -73 176q-69 60 -170 60q-137 0 -236 -99q-115 -115 -121 -309q-6 -89 25 -162h-281v-98h1313zM721 98h-203
q-103 0 -143.5 42.5t-40.5 150.5q0 145 82 233q66 78 159 78q146 0 146 -156v-348z" />
    <glyph glyph-name="qaffinalarabic" unicode="&#x642;" horiz-adv-x="1404" arabic-form="final" 
d="M1057 1231q0 38 -27 65t-65 27q-91 0 -91 -90q0 -88 91 -88q92 0 92 86zM784 1231q0 38 -26 65t-62 27q-90 0 -90 -90q0 -88 90 -88q88 0 88 86zM1442 0v98h-236v770h-262q-194 0 -317 -135t-123 -358q0 -176 96 -283q89 -92 236 -92h243q0 -389 -356 -389
q-223 0 -350 139q-144 153 -144 457v151h-116v-155q0 -318 152.5 -486t441.5 -168q499 0 499 451h236zM1079 98h-213q-233 0 -233 318q0 180 79 283.5t220 103.5h147v-705z" />
    <glyph glyph-name="kaffinalarabic" unicode="&#x643;" horiz-adv-x="1927" arabic-form="final" 
d="M1157 659l-88 78l-84 -10h-205v53q0 221 178 221q64 0 113 -38l2 -5l23 35l-2 2q-77 74 -176 74q-220 0 -220 -272v-70h-118v-68h577zM1982 0v98h-149q-191 0 -191 219v1006l-155 -39l33 -258v-709q0 -219 -189 -219h-850q-130 0 -206 104.5t-76 282.5q0 139 61 230h-84
q-63 -114 -63 -275q0 -202 94.5 -321t253.5 -119h919q130 0 201 86q71 -86 205 -86h196z" />
    <glyph glyph-name="zainarabic" unicode="&#x632;" horiz-adv-x="471" arabic-form="isolated" 
d="M387 1231q0 38 -26.5 65t-63.5 27q-90 0 -90 -90q0 -88 90 -88t90 86zM362 78v790l-157 -39l33 -258v-563q0 -112 -58 -213q-79 -132 -235 -190l32 -56q385 108 385 529z" />
    <glyph glyph-name=".notdef" horiz-adv-x="256" 
 />
    <glyph glyph-name=".notdef" horiz-adv-x="256" 
 />
    <glyph glyph-name=".null" horiz-adv-x="0" 
 />
    <glyph glyph-name="nonmarkingreturn" horiz-adv-x="682" 
 />
    <glyph glyph-name="space" unicode=" " horiz-adv-x="331" 
 />
    <glyph glyph-name="guillemotleft" unicode="&#xab;" horiz-adv-x="759" 
d="M647 958h-108q-160 -229 -160 -479q0 -239 160 -477h106q-121 263 -121 475q0 214 123 481zM379 958h-107q-159 -228 -159 -479q0 -242 155 -477h111q-121 263 -121 475t121 481z" />
    <glyph glyph-name="guillemotright" unicode="&#xbb;" horiz-adv-x="759" 
d="M647 479q0 250 -160 479h-108q123 -267 123 -481q0 -212 -121 -475h111q155 235 155 477zM379 479q0 248 -158 479h-108q123 -267 123 -481t-123 -475h108q158 240 158 477z" />
    <glyph glyph-name="divide" unicode="&#xf7;" horiz-adv-x="1015" 
d="M903 465h-790v-76h790v76zM600 127q0 44 -32 75t-74 31q-43 0 -74 -32t-31 -74q0 -104 105 -104q46 0 76 31t30 73zM600 727q0 43 -32 75t-74 32q-43 0 -74 -32.5t-31 -74.5q0 -104 105 -104q46 0 76 31t30 73z" />
    <glyph glyph-name="exclam" unicode="!" horiz-adv-x="616" 
d="M274 981v342h-139v-342l45 -600h53zM299 98q0 41 -28.5 70t-65.5 29q-41 0 -70 -30.5t-29 -68.5q0 -98 99 -98q94 0 94 98z" />
    <glyph glyph-name="quotedbl" unicode="&#x22;" 
d="M238 1323h-125l24 -330h76zM430 1323h-125l25 -330h76z" />
    <glyph glyph-name="dollar" unicode="$" horiz-adv-x="1400" 
d="M858 352q0 150 -108 242q-74 62 -248 129v485q126 0 215 -53l37 -199h84l-23 273q-159 57 -313 57v164h-68v-166q-161 -21 -250 -127q-84 -93 -84 -221q0 -137 103 -223q63 -57 231 -119v-512q-89 0 -207 53l-34 193h-84l20 -275q155 -55 305 -55v-170h68v172
q162 20 259 115.5t97 236.5zM434 750q-213 86 -213 237q0 178 213 213v-450zM735 311q0 -185 -233 -225v481q117 -51 162 -90q71 -65 71 -166z" />
    <glyph glyph-name="quotesingle" unicode="'" horiz-adv-x="0" 
d="M238 1323h-125l24 -330h76z" />
    <glyph glyph-name="parenright" unicode=")" horiz-adv-x="575" 
d="M502 473q0 494 -418 825l-47 -47q173 -179 250 -356q78 -185 78 -422q0 -442 -328 -776l47 -47q418 328 418 823z" />
    <glyph glyph-name="parenleft" unicode="(" horiz-adv-x="575" 
d="M541 -299q-177 183 -250 352q-80 183 -80 420q0 238 80 424q78 179 250 354l-47 47q-420 -327 -420 -825q0 -496 420 -823z" />
    <glyph glyph-name="multiply" unicode="&#xd7;" horiz-adv-x="866" 
d="M754 150l-273 270l254 254l-53 53l-254 -254l-260 264l-55 -55l262 -264l-252 -252l53 -53l252 252l272 -273z" />
    <glyph glyph-name="plus" unicode="+" horiz-adv-x="1015" 
d="M903 496v75h-356v373h-78v-373h-356v-75h356v-383h78v383h356z" />
    <glyph glyph-name="hyphen" unicode="-" horiz-adv-x="1167" 
d="M1055 387v76h-942v-76h942z" />
    <glyph glyph-name="period" unicode="." horiz-adv-x="432" 
d="M319 104q0 44 -30.5 75.5t-73.5 31.5q-42 0 -72 -32.5t-30 -74.5q0 -104 102 -104q48 0 76 30.5t28 73.5z" />
    <glyph glyph-name="slash" unicode="/" horiz-adv-x="555" 
d="M516 1225l-76 26l-403 -1245l76 -26z" />
    <glyph glyph-name="fourarabic" unicode="&#x664;" horiz-adv-x="1054" 
d="M920 0l-93 139l-182 -26l-172 2q-81 3 -139 61q-76 70 -76 205q0 131 84 203q58 49 117 49l303 4v113h-285q-60 0 -117 57q-69 69 -69 182q0 221 203 221h77l183 -26l96 139h-365q-140 0 -227 -84q-96 -93 -96 -250q0 -130 92 -219q79 -73 141 -70q-83 9 -166 -77
q-94 -101 -94 -250q0 -164 90 -271q91 -102 232 -102h463z" />
    <glyph glyph-name="colon" unicode=":" horiz-adv-x="432" 
d="M319 535q0 43 -30.5 73.5t-69.5 30.5q-46 0 -76 -30t-30 -74q0 -103 106 -103q100 0 100 103zM319 84q0 43 -30.5 74.5t-69.5 31.5q-46 0 -76 -31t-30 -75q0 -104 106 -104q43 0 71.5 31t28.5 73z" />
    <glyph glyph-name="greater" unicode="&#x3e;" horiz-adv-x="839" 
d="M109 -84l479 477l-479 479h141l479 -479l-479 -477h-141z" />
    <glyph glyph-name="equal" unicode="=" horiz-adv-x="993" 
d="M881 496v75h-768v-75h768zM881 238v79h-768v-79h768z" />
    <glyph glyph-name="less" unicode="&#x3c;" horiz-adv-x="839" 
d="M731 -84l-479 477l479 479h-141l-479 -479l479 -477h141z" />
    <glyph glyph-name="bracketright" unicode="]" horiz-adv-x="440" 
d="M328 -342v1649h-291v-47l160 -31l18 -189v-1114l-18 -186l-160 -31v-51h291z" />
    <glyph glyph-name="backslash" unicode="\" horiz-adv-x="555" 
d="M518 6l-403 1245l-78 -26l405 -1245z" />
    <glyph glyph-name="bracketleft" unicode="[" horiz-adv-x="434" 
d="M408 -342v51l-162 31l-19 186v1114l19 189l162 31v47h-295v-1649h295z" />
    <glyph glyph-name="underscore" unicode="_" horiz-adv-x="698" 
d="M727 -174v100h-756v-100h756z" />
    <glyph glyph-name="braceright" unicode="}" horiz-adv-x="620" 
d="M508 449v69l-68 17q-88 21 -88 129v364q0 130 -59.5 201t-155.5 71h-94v-55l63 -12q132 -15 132 -176v-402q0 -129 96 -153l69 -21l-75 -18q-90 -24 -90 -146v-407q0 -160 -132 -178l-63 -11v-55h94q95 0 155 72.5t60 198.5v362q0 112 88 133z" />
    <glyph glyph-name="bar" unicode="|" horiz-adv-x="266" 
d="M90 -332h109v1598h-109v-1598z" />
    <glyph glyph-name="braceleft" unicode="{" horiz-adv-x="608" 
d="M496 -334v55l-64 11q-133 18 -133 176v401q0 129 -96 156l-72 16l76 21q92 24 92 149v406q0 161 133 176l64 12v53h-99q-95 0 -154 -70t-59 -200v-364q0 -108 -88 -129l-65 -17v-69l65 -17q88 -21 88 -133v-362q0 -131 66 -203q56 -68 147 -68h99z" />
    <glyph glyph-name="zero" unicode="0" horiz-adv-x="442" 
d="M307 197v198l-172 -43v-198z" />
    <glyph glyph-name="one" unicode="1" horiz-adv-x="442" 
d="M307 1323l-172 -41l31 -203v-1079l125 98v981z" />
    <glyph glyph-name="two" unicode="2" horiz-adv-x="1011" 
d="M877 1323h-742v-1323h123l4 1210h338l182 -26z" />
    <glyph glyph-name="three" unicode="3" horiz-adv-x="1130" 
d="M995 891v432l-149 -37l26 -194v-174q0 -134 -110 -134q-64 0 -129 74v465l-148 -37l25 -194v-174q0 -134 -113 -134q-59 0 -137 84v455l-125 -37v-1286h123l2 750q73 -76 174 -76q120 0 172 94q76 -94 191 -94q89 0 143.5 59t54.5 158z" />
    <glyph glyph-name="four" unicode="4" horiz-adv-x="1054" 
d="M920 0l-93 139l-182 -26l-172 2q-81 3 -139 61q-76 70 -76 205q0 131 84 203q58 49 117 49l303 4v113h-285q-60 0 -117 57q-69 69 -69 182q0 221 203 221h77l183 -26l96 139h-365q-140 0 -227 -84q-96 -93 -96 -250q0 -130 92 -219q79 -73 141 -70q-83 9 -166 -77
q-94 -101 -94 -250q0 -164 90 -271q91 -102 232 -102h463z" />
    <glyph glyph-name="five" unicode="5" horiz-adv-x="993" 
d="M858 981q-110 39 -252 39q-219 0 -344 -137q-127 -139 -127 -369q0 -192 92 -307q98 -94 201 -94q414 0 414 352v315zM715 768q18 -138 18 -221q0 -336 -254 -336q-99 0 -158 95t-59 249q0 171 68 274q80 115 231 115q53 0 133 -22z" />
    <glyph glyph-name="six" unicode="6" horiz-adv-x="1009" 
d="M874 0v1323h-739l92 -139l183 26h342v-1210h122z" />
    <glyph glyph-name="seven" unicode="7" horiz-adv-x="1296" 
d="M1161 1323h-178l-336 -1233l-282 1045l-54 188h-176l94 -188l240 -838l94 -297h168l96 297l238 838z" />
    <glyph glyph-name="eight" unicode="8" horiz-adv-x="1296" 
d="M1161 0l-96 188l-238 838l-96 297h-168l-94 -297l-240 -838l-94 -188h176l336 1237l283 -1049l53 -188h178z" />
    <glyph glyph-name="nine" unicode="9" horiz-adv-x="876" 
d="M741 1323h-225q-168 0 -276 -117q-105 -114 -105 -307q0 -160 72 -252t196 -92q127 6 213 53v-608h125v1323zM616 696q-85 -32 -163 -32q-93 0 -144 73.5t-51 202.5q0 143 65 228t179 85h114v-557z" />
    <glyph glyph-name="quotedblleft" unicode="&#x201c;" 
d="M303 991h125l-25 330h-75zM111 991h125l-25 330h-76z" />
    <glyph glyph-name="quotedblright" unicode="&#x201d;" 
d="M238 1323h-125l24 -330h76zM430 1323h-125l25 -330h76z" />
    <glyph glyph-name="nbspace" unicode="&#xa0;" horiz-adv-x="1275" 
 />
    <glyph glyph-name="at" unicode="*" horiz-adv-x="927" 
d="M850 264l-334 152l334 151l-62 107l-296 -213l34 362h-125l37 -362l-299 213l-61 -107l334 -151l-334 -152l61 -106l299 209l-37 -361h125l-34 361l296 -209z" />
  </font>
</defs>
</svg>
