<?xml version="1.0" standalone="no"?>
<!DOCTYPE svg PUBLIC "-//W3C//DTD SVG 1.1//EN" "http://www.w3.org/Graphics/SVG/1.1/DTD/svg11.dtd" >
<svg xmlns="http://www.w3.org/2000/svg" xmlns:xlink="http://www.w3.org/1999/xlink" version="1.1">
<metadata>
Created by FontForge 20170731 at Wed May  3 09:45:33 2023
 By Aleksey,,,
</metadata>
<defs>
<font id="GEDinarTwo-LightItalic" horiz-adv-x="524" >
  <font-face 
    font-family="GE Dinar Two"
    font-weight="300"
    font-style="italic"
    font-stretch="normal"
    units-per-em="2048"
    panose-1="2 10 5 3 2 1 2 2 2 4"
    ascent="1638"
    descent="-410"
    bbox="-289 -451 1982 1450"
    underline-thickness="102"
    underline-position="-204"
    unicode-range="U+0020-FEEC"
  />
<missing-glyph horiz-adv-x="256" 
 />
    <glyph glyph-name="hehmedialarabic" unicode="&#x647;" horiz-adv-x="1255" arabic-form="medial" 
d="M1284 0l-24 98h-140l-106 424q-44 179 -223 269q-144 75 -355 75q-200 0 -332 -63l7 -90q123 63 305 63q179 0 301 -67q142 -75 180 -224l98 -387h-196l-80 334q-27 108 -119 176q-82 60 -184 60q-138 0 -211 -99q-86 -115 -43 -309q15 -91 65 -162h-278l22 -98h1313z
M696 98h-202q-103 0 -154.5 42.5t-79.5 150.5q-37 143 25 233q44 78 139 78q144 0 184 -156z" />
    <glyph glyph-name="qaffinalarabic" unicode="&#x642;" horiz-adv-x="1404" arabic-form="final" 
d="M750 1231q-11 38 -45 65t-72 27q-89 0 -68 -90q24 -88 113 -88q93 0 72 86zM477 1231q-10 38 -43.5 65t-68.5 27q-89 0 -68 -90q24 -88 113 -88q88 0 67 86zM1442 0l-25 98h-235l-193 770h-262q-197 0 -285 -135q-87 -133 -32 -358q43 -176 165 -283q115 -92 261 -92h243
q94 -389 -260 -389q-225 0 -385 139q-181 150 -258 457l-37 151h-116l38 -155q78 -318 272.5 -486t483.5 -168q500 0 389 451h236zM1055 98h-213q-234 0 -314 318q-45 180 8.5 283.5t194.5 103.5h148z" />
    <glyph glyph-name="kaffinalarabic" unicode="&#x643;" horiz-adv-x="1927" arabic-form="final" 
d="M991 659l-106 78l-82 -10h-205l-12 53q-56 221 123 221q62 0 120 -38l5 -5l14 35l-4 2q-95 74 -195 74q-219 0 -149 -272l16 -70h-119l17 -68h577zM1982 0l-24 98h-150q-189 0 -245 219l-252 1006l-146 -39l99 -258l176 -709q56 -219 -133 -219h-850q-130 0 -233.5 105
t-147.5 282q-34 137 4 230h-82q-34 -116 4 -275q51 -202 175.5 -321t283.5 -119h919q129 0 179 86q92 -86 227 -86h196z" />
    <glyph glyph-name="zainarabic" unicode="&#x632;" horiz-adv-x="471" arabic-form="isolated" 
d="M80 1231q-10 38 -43.5 65t-69.5 27q-88 0 -67 -90q24 -88 110 -88q91 0 70 86zM342 78l-197 790l-145 -39l94 -258l142 -563q27 -113 -7 -213q-47 -132 -186 -190l45 -56q359 108 254 529z" />
    <glyph glyph-name=".notdef" horiz-adv-x="256" 
 />
    <glyph glyph-name=".notdef" horiz-adv-x="256" 
 />
    <glyph glyph-name=".null" horiz-adv-x="0" 
 />
    <glyph glyph-name="nonmarkingreturn" horiz-adv-x="682" 
 />
    <glyph glyph-name="space" unicode=" " horiz-adv-x="331" 
 />
    <glyph glyph-name="guillemotleft" unicode="&#xab;" horiz-adv-x="759" 
d="M408 958h-109q-103 -224 -41 -479q60 -239 279 -477h106q-183 260 -240 475q-52 208 5 481zM139 958h-106q-101 -225 -39 -479q58 -240 272 -477h111q-183 260 -240 475q-52 208 2 481z" />
    <glyph glyph-name="guillemotright" unicode="&#xbb;" horiz-adv-x="759" 
d="M526 479q-60 248 -278 479h-109q188 -264 242 -481q55 -208 -2 -475h110q98 235 37 477zM258 479q-60 245 -274 479h-109q187 -266 240 -481q55 -211 -4 -475h108q99 238 39 477z" />
    <glyph glyph-name="divide" unicode="&#xf7;" horiz-adv-x="1015" 
d="M786 465h-788l16 -76h791zM567 127q-10 43 -50.5 74.5t-82.5 31.5q-43 0 -66 -32t-12 -74q27 -104 131 -104q46 0 68.5 31t11.5 73zM418 727q-10 42 -50.5 74.5t-82.5 32.5q-43 0 -66 -32.5t-12 -74.5q24 -104 131 -104q46 0 68.5 31t11.5 73z" />
    <glyph glyph-name="exclam" unicode="!" horiz-adv-x="616" 
d="M29 981l-84 342h-140l86 -342l193 -600h53zM274 98q-10 41 -45.5 70t-72.5 29q-41 0 -62 -30.5t-12 -68.5q24 -98 123 -98q93 0 69 98z" />
    <glyph glyph-name="quotedbl" unicode="&#x22;" 
d="M-92 1323h-125l108 -330h76zM98 1323h-123l107 -330h76z" />
    <glyph glyph-name="dollar" unicode="$" horiz-adv-x="1400" 
d="M770 352q-41 153 -170 242q-90 62 -281 129l-120 485q126 0 229 -53l86 -199h84l-90 273q-174 57 -328 57l-41 164h-67l41 -166q-153 -21 -215 -127q-63 -94 -29 -221q34 -136 156 -223q73 -55 260 -119l129 -512q-91 0 -221 53l-82 193h-84l88 -275q171 -55 319 -55
l41 -170h68l-41 172q156 20 229.5 116t38.5 236zM246 750q-233 85 -271 237q-43 178 158 213zM657 311q47 -185 -178 -225l-121 481q134 -52 185 -90q87 -63 114 -166z" />
    <glyph glyph-name="quotesingle" unicode="'" horiz-adv-x="0" 
d="M-92 1323h-125l108 -330h76z" />
    <glyph glyph-name="parenright" unicode=")" horiz-adv-x="575" 
d="M383 473q-122 492 -623 825l-34 -47q214 -176 337 -356q122 -185 183 -422q111 -441 -135 -776l59 -47q336 330 213 823z" />
    <glyph glyph-name="parenleft" unicode="(" horiz-adv-x="575" 
d="M614 -299q-220 181 -338 352q-125 180 -184 420q-61 238 -26 424q35 180 161 354l-59 47q-334 -328 -211 -825q120 -495 623 -823z" />
    <glyph glyph-name="multiply" unicode="&#xd7;" horiz-adv-x="866" 
d="M715 150l-340 270l190 254l-65 53l-191 -254l-323 264l-43 -55l327 -264l-190 -252l67 -53l189 252l340 -273z" />
    <glyph glyph-name="plus" unicode="+" horiz-adv-x="1015" 
d="M778 496l-18 75h-357l-92 373h-78l93 -373h-355l19 -75h354l96 -383h78l-96 383h356z" />
    <glyph glyph-name="hyphen" unicode="-" horiz-adv-x="1167" 
d="M956 387l-18 76h-940l16 -76h942z" />
    <glyph glyph-name="period" unicode="." horiz-adv-x="432" 
d="M293 104q-10 44 -49 75.5t-82 31.5q-42 0 -64.5 -32.5t-11.5 -74.5q24 -104 129 -104q48 0 68.5 30.5t9.5 73.5z" />
    <glyph glyph-name="slash" unicode="/" horiz-adv-x="555" 
d="M209 1225l-82 26l-92 -1245l82 -26z" />
    <glyph glyph-name="fourarabic" unicode="&#x664;" horiz-adv-x="1054" 
d="M920 0l-127 139l-177 -26l-172 2q-82 3 -155 61q-92 69 -127 205q-34 130 33 203q46 49 104 49l303 4l-29 113h-284q-59 0 -131 57q-89 74 -115 182q-56 221 147 221h78l189 -26l61 139h-364q-137 0 -203 -84q-76 -94 -35 -250q35 -131 145 -219q98 -73 158 -70
q-83 9 -145 -77q-70 -101 -33 -250q43 -165 158 -271q117 -102 258 -102h463z" />
    <glyph glyph-name="colon" unicode=":" horiz-adv-x="432" 
d="M184 535q-10 43 -48 73.5t-77 30.5q-45 0 -67.5 -30.5t-11.5 -73.5q27 -103 131 -103q100 0 73 103zM297 84q-10 43 -49 74.5t-78 31.5q-46 0 -68.5 -31t-11.5 -75q27 -104 133 -104q43 0 64 31t10 73z" />
    <glyph glyph-name="greater" unicode="&#x3e;" horiz-adv-x="839" 
d="M129 -84l360 477l-598 479h140l600 -479l-361 -477h-141z" />
    <glyph glyph-name="equal" unicode="=" horiz-adv-x="993" 
d="M756 496l-19 75h-766l19 -75h766zM821 238l-20 79h-768l20 -79h768z" />
    <glyph glyph-name="less" unicode="&#x3c;" horiz-adv-x="839" 
d="M752 -84l-598 477l358 479h-141l-359 -479l598 -477h142z" />
    <glyph glyph-name="bracketright" unicode="]" horiz-adv-x="440" 
d="M412 -342l-412 1649h-289l13 -47l167 -31l66 -189l274 -1114l29 -186l-151 -31l12 -51h291z" />
    <glyph glyph-name="backslash" unicode="\" horiz-adv-x="555" 
d="M516 6l-713 1245l-71 -26l714 -1245z" />
    <glyph glyph-name="bracketleft" unicode="[" horiz-adv-x="434" 
d="M492 -342l-13 51l-170 31l-65 186l-275 1114l-28 189l151 31l-12 47h-293l410 -1649h295z" />
    <glyph glyph-name="underscore" unicode="_" horiz-adv-x="698" 
d="M770 -174l-27 100h-753l24 -100h756z" />
    <glyph glyph-name="braceright" unicode="}" horiz-adv-x="620" 
d="M395 449l-18 69l-72 17q-95 22 -119 129l-92 364q-31 130 -108 201t-172 71h-95l15 -55l65 -12q135 -15 176 -176l99 -402q30 -129 133 -153l76 -21l-72 -18q-83 -24 -53 -146l100 -407q41 -160 -86 -178l-61 -11l14 -55h94q95 0 137 72.5t11 198.5l-91 362
q-27 112 56 133z" />
    <glyph glyph-name="bar" unicode="|" horiz-adv-x="266" 
d="M172 -332h109l-398 1598h-108z" />
    <glyph glyph-name="braceleft" unicode="{" horiz-adv-x="608" 
d="M578 -334l-15 55l-65 11q-138 18 -176 176l-101 401q-35 129 -135 156l-76 16l70 21q85 24 55 149l-100 406q-41 161 88 176l61 12l-14 53h-98q-94 0 -134.5 -70t-9.5 -200l90 -364q24 -109 -55 -129l-61 -17l18 -69l70 -17q92 -21 119 -133l90 -362q35 -134 116 -203
q71 -68 164 -68h99z" />
    <glyph glyph-name="zero" unicode="0" horiz-adv-x="442" 
d="M258 197l-51 198l-160 -43l49 -198z" />
    <glyph glyph-name="one" unicode="1" horiz-adv-x="442" 
d="M-23 1323l-161 -41l82 -203l268 -1079l100 98l-246 981z" />
    <glyph glyph-name="two" unicode="2" horiz-adv-x="1011" 
d="M545 1323h-740l330 -1323h123l-297 1210h336l188 -26z" />
    <glyph glyph-name="three" unicode="3" horiz-adv-x="1130" 
d="M772 891l-108 432l-140 -37l76 -194l43 -174q35 -134 -78 -134q-64 0 -147 74l-117 465l-137 -37l74 -194l43 -174q35 -134 -80 -134q-57 0 -158 84l-113 455l-114 -37l319 -1286h123l-186 750q91 -76 192 -76q123 0 150 94q101 -94 213 -94q89 0 129.5 59t15.5 158z" />
    <glyph glyph-name="four" unicode="4" horiz-adv-x="1054" 
d="M920 0l-127 139l-177 -26l-172 2q-82 3 -155 61q-92 69 -127 205q-34 130 33 203q46 49 104 49l303 4l-29 113h-284q-59 0 -131 57q-89 74 -115 182q-56 221 147 221h78l189 -26l61 139h-364q-137 0 -203 -84q-76 -94 -35 -250q35 -131 145 -219q98 -73 158 -70
q-83 9 -145 -77q-70 -101 -33 -250q43 -165 158 -271q117 -102 258 -102h463z" />
    <glyph glyph-name="five" unicode="5" horiz-adv-x="993" 
d="M612 981q-118 39 -262 39q-218 0 -309 -137q-90 -140 -35 -369q50 -195 168 -307q122 -94 225 -94q414 0 326 352l-78 315zM522 768q54 -141 74 -221q83 -336 -170 -336q-99 0 -181.5 95t-121.5 249q-43 173 0 274q50 115 203 115q54 0 137 -22z" />
    <glyph glyph-name="six" unicode="6" horiz-adv-x="1009" 
d="M874 0l-331 1323h-738l127 -139l174 26h343l303 -1210h122z" />
    <glyph glyph-name="seven" unicode="7" horiz-adv-x="1296" 
d="M829 1323h-178l-26 -1233l-545 1045l-98 188h-177l142 -188l446 -838l170 -297h168l21 297l28 838z" />
    <glyph glyph-name="eight" unicode="8" horiz-adv-x="1296" 
d="M1161 0l-143 188l-447 838l-172 297h-168l-18 -297l-31 -838l-47 -188h176l27 1237l545 -1049l100 -188h178z" />
    <glyph glyph-name="nine" unicode="9" horiz-adv-x="876" 
d="M410 1323h-226q-166 0 -243 -117q-78 -116 -29 -307q40 -161 134 -252.5t218 -91.5q125 6 199 53l153 -608h125zM442 696q-79 -32 -155 -32q-93 0 -162 73.5t-102 202.5q-34 143 8.5 228t156.5 85h115z" />
    <glyph glyph-name="quotedblleft" unicode="&#x201c;" 
d="M55 991h125l-106 330h-74zM-135 991h125l-107 330h-76z" />
    <glyph glyph-name="quotedblright" unicode="&#x201d;" 
d="M-92 1323h-125l108 -330h76zM98 1323h-123l107 -330h76z" />
    <glyph glyph-name="nbspace" unicode="&#xa0;" horiz-adv-x="1275" 
 />
    <glyph glyph-name="at" unicode="*" horiz-adv-x="927" 
d="M782 264l-370 152l295 151l-89 107l-243 -213l-56 362h-124l127 -362l-351 213l-34 -107l370 -151l-297 -152l88 -106l248 209l53 -361h125l-125 361l349 -209z" />
  </font>
</defs>
</svg>
