<?xml version="1.0" standalone="no"?>
<!DOCTYPE svg PUBLIC "-//W3C//DTD SVG 1.1//EN" "http://www.w3.org/Graphics/SVG/1.1/DTD/svg11.dtd" >
<svg xmlns="http://www.w3.org/2000/svg" xmlns:xlink="http://www.w3.org/1999/xlink" version="1.1">
<metadata>
Created by FontForge 20170731 at Mon Mar  7 15:19:39 2011
 By Aleksey,,,
Copyright (c) Boutros International, 2005. All rights reserved.
</metadata>
<defs>
<font id="GEDinarTwo-LightItalic" horiz-adv-x="256" >
  <font-face 
    font-family="GE Dinar Two"
    font-weight="300"
    font-style="italic"
    font-stretch="normal"
    units-per-em="1000"
    panose-1="2 10 5 3 2 1 2 2 2 4"
    ascent="800"
    descent="-200"
    bbox="-141 -220 968 708"
    underline-thickness="50"
    underline-position="-150"
    unicode-range="U+0020-FEEC"
  />
<missing-glyph horiz-adv-x="364" 
d="M33 0v666h265v-666h-265zM66 33h199v600h-199v-600z" />
    <glyph glyph-name="zainarabic" unicode="&#x632;" horiz-adv-x="230" arabic-form="isolated" 
d="M39 601q-5 19 -21.5 32t-33.5 13q-44 0 -33 -44q12 -43 54 -43q45 0 34 42zM167 38l-96 386l-71 -19l46 -126l69 -275q13 -55 -3 -104q-23 -65 -91 -93l22 -27q175 52 124 258z" />
    <glyph glyph-name="qaffinalarabic" unicode="&#x642;" horiz-adv-x="686" arabic-form="final" 
d="M366 601q-5 19 -21.5 32t-35.5 13q-44 0 -33 -44q12 -43 55 -43q45 0 35 42zM233 601q-5 19 -21.5 32t-33.5 13q-44 0 -33 -44q12 -43 55 -43q44 0 33 42zM704 0l-12 48h-115l-94 376h-128q-95 0 -139 -66q-43 -65 -16 -175q21 -85 81 -138q55 -45 127 -45h119
q46 -190 -127 -190q-109 0 -188 68q-88 74 -126 223l-18 74h-57l19 -76q38 -155 133 -237t236 -82q244 0 190 220h115zM515 48h-104q-114 0 -153 155q-22 88 4 138.5t95 50.5h72z" />
    <glyph glyph-name="kaffinalarabic" unicode="&#x643;" horiz-adv-x="941" arabic-form="final" 
d="M484 322l-52 38l-40 -5h-100l-6 26q-27 108 60 108q30 0 59 -19l2 -2l7 17l-2 1q-46 36 -95 36q-107 0 -73 -133l8 -34h-58l8 -33h282zM968 0l-12 48h-73q-93 0 -120 107l-123 491l-71 -19l48 -126l86 -346q27 -107 -65 -107h-415q-64 0 -114 51.5t-72 137.5
q-16 66 2 112h-40q-16 -56 2 -134q25 -99 85.5 -157t138.5 -58h449q63 0 87 42q45 -42 111 -42h96z" />
    <glyph glyph-name="hehmedialarabic" unicode="&#x647;" horiz-adv-x="613" arabic-form="medial" 
d="M627 0l-12 48h-68l-52 207q-21 86 -109 131q-71 37 -173 37q-97 0 -162 -31l3 -44q61 31 149 31q87 0 147 -33q70 -37 88 -109l48 -189h-96l-39 163q-14 54 -58 86q-40 29 -90 29q-67 0 -103 -48q-42 -55 -21 -151q7 -43 32 -79h-136l11 -48h641zM340 48h-99
q-50 0 -75.5 20.5t-38.5 73.5q-18 70 12 114q21 38 68 38q71 0 90 -76z" />
    <glyph glyph-name=".notdef" horiz-adv-x="364" 
d="M33 0v666h265v-666h-265zM66 33h199v600h-199v-600z" />
    <glyph glyph-name=".null" horiz-adv-x="0" 
 />
    <glyph glyph-name="nonmarkingreturn" horiz-adv-x="333" 
 />
    <glyph glyph-name="space" unicode=" " horiz-adv-x="162" 
 />
    <glyph glyph-name="exclam" unicode="!" horiz-adv-x="301" 
d="M14 479l-41 167h-68l42 -167l94 -293h26zM134 48q-5 20 -22.5 34t-35.5 14q-20 0 -30.5 -14.5t-5.5 -33.5q12 -48 60 -48q46 0 34 48z" />
    <glyph glyph-name="quotedbl" unicode="&#x22;" 
d="M-45 646h-61l53 -161h37zM48 646h-60l52 -161h37z" />
    <glyph glyph-name="dollar" unicode="$" horiz-adv-x="684" 
d="M376 172q-20 74 -83 118q-45 31 -137 63l-59 237q62 0 112 -26l42 -97h41l-44 133q-85 28 -160 28l-20 80h-33l20 -81q-75 -10 -105 -62q-30 -46 -14 -108q16 -66 76 -109q36 -27 127 -58l63 -250q-44 0 -108 26l-40 94h-41l43 -134q84 -27 156 -27l20 -83h33l-20 84
q76 10 112 56.5t19 115.5zM120 366q-114 42 -132 116q-21 87 77 104zM321 152q23 -90 -87 -110l-59 235q63 -25 90 -44q42 -31 56 -81z" />
    <glyph glyph-name="quotesingle" unicode="'" horiz-adv-x="0" 
d="M-45 646h-61l53 -161h37z" />
    <glyph glyph-name="parenleft" unicode="(" horiz-adv-x="281" 
d="M300 -146q-106 87 -165 172q-61 88 -90 205q-30 116 -13 207q17 87 79 173l-29 23q-163 -160 -103 -403q59 -242 304 -402z" />
    <glyph glyph-name="parenright" unicode=")" horiz-adv-x="281" 
d="M187 231q-60 240 -304 403l-17 -23q105 -86 165 -174q59 -89 89 -206q54 -215 -66 -379l29 -23q164 161 104 402z" />
    <glyph glyph-name="at" unicode="*" horiz-adv-x="453" 
d="M382 129l-181 74l144 74l-43 52l-119 -104l-27 177h-61l62 -177l-171 104l-17 -52l181 -74l-145 -74l43 -52l121 102l26 -176h61l-61 176l170 -102z" />
    <glyph glyph-name="plus" unicode="+" horiz-adv-x="496" 
d="M380 242l-9 37h-174l-45 182h-38l45 -182h-173l9 -37h173l47 -187h38l-47 187h174z" />
    <glyph glyph-name="hyphen" unicode="-" horiz-adv-x="570" 
d="M467 189l-9 37h-459l8 -37h460z" />
    <glyph glyph-name="period" unicode="." horiz-adv-x="211" 
d="M143 51q-5 22 -24 37t-40 15t-31.5 -15.5t-5.5 -36.5q12 -51 63 -51q23 0 33 15t5 36z" />
    <glyph glyph-name="slash" unicode="/" horiz-adv-x="271" 
d="M102 598l-40 13l-45 -608l40 -13z" />
    <glyph glyph-name="zero" unicode="0" horiz-adv-x="216" 
d="M126 96l-25 97l-78 -21l24 -97z" />
    <glyph glyph-name="one" unicode="1" horiz-adv-x="216" 
d="M-11 646l-79 -20l40 -99l131 -527l49 48l-120 479z" />
    <glyph glyph-name="two" unicode="2" horiz-adv-x="494" 
d="M266 646h-361l161 -646h60l-145 591h164l92 -13z" />
    <glyph glyph-name="three" unicode="3" horiz-adv-x="552" 
d="M377 435l-53 211l-68 -18l37 -95l21 -85q17 -65 -38 -65q-32 0 -72 36l-57 227l-67 -18l36 -95l21 -85q17 -65 -39 -65q-28 0 -77 41l-55 222l-56 -18l156 -628h60l-91 366q44 -37 94 -37q60 0 73 46q49 -46 104 -46q43 0 63 29t8 77z" />
    <glyph glyph-name="four" unicode="4" horiz-adv-x="515" 
d="M449 0l-62 68l-86 -13l-84 1q-40 1 -76 30q-45 34 -62 100q-16 64 16 99q23 24 51 24l148 2l-14 55h-139q-29 0 -64 28q-43 35 -56 89q-27 108 72 108h38l92 -13l30 68h-178q-67 0 -99 -41q-36 -46 -17 -122q17 -63 71 -107q47 -35 77 -34q-41 4 -71 -38
q-34 -49 -16 -122q21 -80 77 -132q58 -50 126 -50h226z" />
    <glyph glyph-name="five" unicode="5" horiz-adv-x="485" 
d="M299 479q-58 19 -128 19q-106 0 -151 -67q-44 -68 -17 -180q24 -95 82 -150q59 -46 110 -46q202 0 159 172l-38 154zM255 375q25 -67 36 -108q41 -164 -83 -164q-48 0 -88.5 46.5t-59.5 121.5q-21 85 0 134q24 56 99 56q26 0 67 -11z" />
    <glyph glyph-name="six" unicode="6" horiz-adv-x="493" 
d="M427 0l-162 646h-360l62 -68l85 13h167l148 -591h60z" />
    <glyph glyph-name="seven" unicode="7" horiz-adv-x="633" 
d="M405 646h-87l-13 -602l-266 510l-48 92h-86l69 -92l218 -409l83 -145h82l10 145l14 409z" />
    <glyph glyph-name="eight" unicode="8" horiz-adv-x="633" 
d="M567 0l-70 92l-218 409l-84 145h-82l-9 -145l-15 -409l-23 -92h86l13 604l266 -512l49 -92h87z" />
    <glyph glyph-name="nine" unicode="9" horiz-adv-x="428" 
d="M200 646h-110q-81 0 -119 -57q-38 -56 -14 -150q19 -78 65.5 -123t106.5 -45q60 3 97 26l75 -297h61zM216 340q-41 -16 -76 -16q-45 0 -79 36t-50 99q-17 70 4.5 111.5t76.5 41.5h56z" />
    <glyph glyph-name="colon" unicode=":" horiz-adv-x="211" 
d="M90 261q-5 21 -23.5 36t-37.5 15q-22 0 -33 -15t-6 -36q14 -50 64 -50t36 50zM145 41q-5 21 -24 36.5t-38 15.5q-23 0 -33.5 -15t-5.5 -37q14 -51 65 -51q21 0 31 15t5 36z" />
    <glyph glyph-name="less" unicode="&#x3c;" horiz-adv-x="410" 
d="M367 -41l-292 233l175 234h-69l-175 -234l292 -233h69z" />
    <glyph glyph-name="equal" unicode="=" horiz-adv-x="485" 
d="M369 242l-9 37h-374l9 -37h374zM401 116l-10 39h-375l10 -39h375z" />
    <glyph glyph-name="greater" unicode="&#x3e;" horiz-adv-x="410" 
d="M63 -41l176 233l-292 234h68l293 -234l-176 -233h-69z" />
    <glyph glyph-name="bracketleft" unicode="[" horiz-adv-x="212" 
d="M240 -167l-6 25l-83 15l-32 91l-134 544l-14 92l74 15l-6 23h-143l200 -805h144z" />
    <glyph glyph-name="backslash" unicode="\" horiz-adv-x="271" 
d="M252 3l-348 608l-35 -13l349 -608z" />
    <glyph glyph-name="bracketright" unicode="]" horiz-adv-x="215" 
d="M201 -167l-201 805h-141l6 -23l82 -15l32 -92l134 -544l14 -91l-74 -15l6 -25h142z" />
    <glyph glyph-name="underscore" unicode="_" horiz-adv-x="341" 
d="M376 -85l-13 49h-368l12 -49h369z" />
    <glyph glyph-name="braceleft" unicode="{" horiz-adv-x="297" 
d="M282 -163l-7 27l-32 5q-68 9 -86 86l-49 196q-16 62 -66 76l-37 8l34 10q42 12 27 73l-49 198q-20 78 43 86l30 6l-7 26h-48q-46 0 -65.5 -34.5t-4.5 -97.5l44 -178q12 -53 -27 -63l-30 -8l9 -34l34 -8q44 -10 58 -65l44 -177q17 -65 57 -99q34 -33 80 -33h48z" />
    <glyph glyph-name="bar" unicode="|" horiz-adv-x="130" 
d="M84 -162h53l-194 780h-53z" />
    <glyph glyph-name="braceright" unicode="}" horiz-adv-x="303" 
d="M193 219l-9 34l-35 8q-46 11 -58 63l-45 178q-15 63 -52.5 98t-84.5 35h-46l7 -27l32 -6q66 -7 86 -86l48 -196q15 -63 65 -75l37 -10l-35 -9q-41 -12 -26 -71l49 -199q20 -78 -42 -87l-30 -5l7 -27h46q46 0 66.5 35.5t5.5 96.5l-44 177q-14 54 27 65z" />
    <glyph glyph-name="nbspace" unicode="&#xa0;" horiz-adv-x="623" 
 />
    <glyph glyph-name="guillemotleft" unicode="&#xab;" horiz-adv-x="371" 
d="M199 468h-53q-50 -110 -20 -234q30 -118 136 -233h52q-90 127 -117 232q-25 103 2 235zM68 468h-52q-49 -110 -19 -234q28 -118 133 -233h54q-90 127 -117 232q-25 102 1 235z" />
    <glyph glyph-name="guillemotright" unicode="&#xbb;" horiz-adv-x="371" 
d="M257 234q-30 122 -136 234h-53q92 -129 118 -235q27 -102 -1 -232h54q48 115 18 233zM126 234q-29 120 -134 234h-53q91 -130 117 -235q27 -103 -2 -232h53q48 117 19 233z" />
    <glyph glyph-name="multiply" unicode="&#xd7;" horiz-adv-x="423" 
d="M349 73l-166 132l93 124l-32 26l-93 -124l-158 129l-21 -27l160 -129l-93 -123l33 -26l92 123l166 -133z" />
    <glyph glyph-name="divide" unicode="&#xf7;" horiz-adv-x="496" 
d="M384 227h-385l8 -37h386zM277 62q-5 21 -24.5 36.5t-40.5 15.5t-32 -15.5t-6 -36.5q14 -51 64 -51q23 0 33.5 15t5.5 36zM204 355q-5 21 -25 36.5t-40 15.5q-21 0 -32 -15.5t-6 -36.5q12 -51 64 -51q23 0 33.5 15t5.5 36z" />
    <glyph glyph-name="fourarabic" unicode="&#x664;" horiz-adv-x="515" 
d="M449 0l-62 68l-86 -13l-84 1q-40 1 -76 30q-45 34 -62 100q-16 64 16 99q23 24 51 24l148 2l-14 55h-139q-29 0 -64 28q-43 35 -56 89q-27 108 72 108h38l92 -13l30 68h-178q-67 0 -99 -41q-36 -46 -17 -122q17 -63 71 -107q47 -35 77 -34q-41 4 -71 -38
q-34 -49 -16 -122q21 -80 77 -132q58 -50 126 -50h226z" />
    <glyph glyph-name="quotedblleft" unicode="&#x201c;" 
d="M27 484h61l-52 161h-36zM-66 484h61l-52 161h-37z" />
    <glyph glyph-name="quotedblright" unicode="&#x201d;" 
d="M-45 646h-61l53 -161h37zM48 646h-60l52 -161h37z" />
  </font>
</defs>
</svg>
