<?xml version="1.0" standalone="no"?>
<!DOCTYPE svg PUBLIC "-//W3C//DTD SVG 1.1//EN" "http://www.w3.org/Graphics/SVG/1.1/DTD/svg11.dtd" >
<svg xmlns="http://www.w3.org/2000/svg" xmlns:xlink="http://www.w3.org/1999/xlink" version="1.1">
<metadata>
Created by FontForge 20170731 at Tue May 31 12:58:46 2016
 By Aleksey,,,
Copyright 2009 The Cairo Project Authors (gaber@gaberism.net)
</metadata>
<defs>
<font id="Cairo-ExtraLight" horiz-adv-x="560" >
  <font-face 
    font-family="Cairo ExtraLight"
    font-weight="250"
    font-stretch="normal"
    units-per-em="1000"
    panose-1="0 0 3 0 0 0 0 0 0 0"
    ascent="800"
    descent="-200"
    x-height="500"
    cap-height="700"
    bbox="-224 -424 1540 1158"
    underline-thickness="50"
    underline-position="-150"
    unicode-range="U+000D-FEFC"
  />
<missing-glyph horiz-adv-x="235" 
 />
    <glyph glyph-name="uniFDF2" unicode="&#x627;&#xfedf;&#xfee0;&#xfeea;" horiz-adv-x="1314" arabic-form="isolated" 
d="M727 848l-36 -16v167l36 15v-166zM654 668q-25 0 -36 12t-11 37q0 24 2 49l24 6v-40q0 -16 7.5 -27.5t24.5 -8.5q14 1 21.5 12.5t7.5 28.5v33l31 6v-33q0 -12 11 -21t25 -5l23 5v82l24 5q3 -19 3 -49v-57l-51 -10q-12 -2 -17 -2q-13 0 -22 5.5t-11 14.5q0 -15 -4.5 -25
t-27.5 -16q-9 -2 -24 -2zM927 730h39v-730h-711q-84 0 -131 27.5t-65.5 81t-18.5 140.5q0 133 44.5 197t150.5 64q38 0 107.5 -3.5t111.5 -6.5v-466h245v576h39v-576h189v696zM1224 730v-730h-39v730h39zM96.5 127q17.5 -47 59.5 -70t116 -23h143v434q-124 7 -157 7
q-97 0 -138 -53.5t-41 -169.5q0 -78 17.5 -125z" />
    <glyph glyph-name="uniFEF5" unicode="&#xfedf;&#xfe82;" horiz-adv-x="563" arabic-form="isolated" 
d="M29 0zM476 730v-730h-436v34h129v561h39v-561h230v696h38zM164 686q-26 11 -41.5 17t-23.5 6q-22 0 -55 -32l-9 -5l-6 24q16 19 36 33t37 14q9 0 22 -4t42 -18q51 -21 61 -21q9 0 26.5 10.5t26.5 19.5l7 6l7 -24q-16 -21 -33.5 -33.5t-30.5 -12.5q-20 0 -66 20z" />
    <glyph glyph-name="uniFEF6" unicode="&#xfee0;&#xfe82;" horiz-adv-x="571" arabic-form="final" 
d="M29 0zM571 34v-34h-531v34h129v561h39v-561h230v696h38v-696h95zM164 686q-26 11 -41.5 17t-23.5 6q-22 0 -55 -32l-9 -5l-6 24q16 19 36 33t37 14q9 0 22 -4t42 -18q51 -21 61 -21q9 0 26.5 10.5t26.5 19.5l7 6l7 -24q-16 -21 -33.5 -33.5t-30.5 -12.5q-20 0 -66 20z
" />
    <glyph glyph-name="uniFEF7" unicode="&#xfedf;&#xfe84;" horiz-adv-x="563" arabic-form="isolated" 
d="M40 0zM476 730v-730h-436v34h129v561h39v-561h230v696h38zM263 668l-194 -38l-8 22l50 13q-31 27 -31 65q0 34 23.5 58.5t61.5 24.5q23 0 43 -8.5t27 -15.5l-8 -23q-6 5 -19.5 10t-29.5 5q-28 0 -46 -18t-18 -43q0 -29 24 -47l116 31z" />
    <glyph glyph-name="uniFEF8" unicode="&#xfee0;&#xfe84;" horiz-adv-x="571" arabic-form="final" 
d="M40 0zM571 34v-34h-531v34h129v561h39v-561h230v696h38v-696h95zM263 668l-194 -38l-8 22l50 13q-31 27 -31 65q0 34 23.5 58.5t61.5 24.5q23 0 43 -8.5t27 -15.5l-8 -23q-6 5 -19.5 10t-29.5 5q-28 0 -46 -18t-18 -43q0 -29 24 -47l116 31z" />
    <glyph glyph-name="uniFEF9" unicode="&#xfedf;&#xfe88;" horiz-adv-x="563" arabic-form="isolated" 
d="M40 0zM476 730v-730h-436v34h129v561h39v-561h230v696h38zM282 -225l-194 -38l-8 22l49 13q-30 26 -30 65q0 34 23.5 58.5t61.5 24.5q23 0 43 -9t26 -15l-8 -24q-6 5 -19 10.5t-29 5.5q-28 0 -46 -18t-18 -43q0 -28 23 -48l117 32z" />
    <glyph glyph-name="uniFEFA" unicode="&#xfee0;&#xfe88;" horiz-adv-x="571" arabic-form="final" 
d="M40 0zM571 34v-34h-531v34h129v561h39v-561h230v696h38v-696h95zM282 -225l-194 -38l-8 22l49 13q-30 26 -30 65q0 34 23.5 58.5t61.5 24.5q23 0 43 -9t26 -15l-8 -24q-6 5 -19 10.5t-29 5.5q-28 0 -46 -18t-18 -43q0 -28 23 -48l117 32z" />
    <glyph glyph-name="uniFEFB" unicode="&#xfedf;&#xfe8e;" horiz-adv-x="563" arabic-form="isolated" 
d="M476 730v-730h-436v34h129v561h39v-561h230v696h38z" />
    <glyph glyph-name="uniFEFC" unicode="&#xfee0;&#xfe8e;" horiz-adv-x="571" arabic-form="final" 
d="M571 34v-34h-531v34h129v561h39v-561h230v696h38v-696h95z" />
    <glyph glyph-name="uni06440671" unicode="&#xfedf;&#xfb51;" horiz-adv-x="563" 
d="M40 0zM476 730v-730h-436v34h129v561h39v-561h230v696h38zM45 681h48q0 40 30.5 70.5t81.5 30.5q38 0 60.5 -22t22.5 -79v-27h-243v27zM260 681q0 45 -18 60.5t-45 15.5q-35 0 -60 -19.5t-25 -56.5h148z" />
    <glyph glyph-name="uni06440671.fina" unicode="&#xfee0;&#xfb51;" horiz-adv-x="571" 
d="M40 0zM571 34v-34h-531v34h129v561h39v-561h230v696h38v-696h95zM45 681h48q0 40 30.5 70.5t81.5 30.5q38 0 60.5 -22t22.5 -79v-27h-243v27zM260 681q0 45 -18 60.5t-45 15.5q-35 0 -60 -19.5t-25 -56.5h148z" />
    <glyph glyph-name="uni066E.init" unicode="&#x66e;" horiz-adv-x="275" 
d="M188 500v-500h-188v34h149v466h39z" />
    <glyph glyph-name="uni066E.medi" unicode="&#x66e;" horiz-adv-x="336" 
d="M336 34v-34h-336v34h149v466h39v-466h148z" />
    <glyph glyph-name="uni066E.fina" unicode="&#x66e;" horiz-adv-x="771" 
d="M771 34v-34h-476q-104 0 -156.5 17.5t-68.5 47.5t-16 78q0 39 9 108.5t22 136.5l28 -1l-10 -83q-15 -112 -15 -152q0 -52 20.5 -77t64.5 -33t131 -8h284v466h39v-466h144z" />
    <glyph glyph-name="uni066F.init" unicode="&#x66f;" horiz-adv-x="559" 
d="M0 0zM492 491v-491h-492v34h167q-22 36 -28.5 78t-6.5 111q0 113 17 170.5t62.5 81.5t136.5 24q71 0 132 -7zM453 462q-72 6 -114 6q-70 0 -107 -24t-50.5 -72t-13.5 -129q0 -93 13 -142t31 -67h241v428z" />
    <glyph glyph-name="uni066F.medi" unicode="&#x66f;" horiz-adv-x="574" 
d="M0 0zM574 34v-34h-574v34h167q-22 36 -28.5 78t-6.5 111q0 113 17 170.5t62.5 81.5t136.5 24q71 0 132 -7l12 -1v-457h82zM181 101q13 -49 31 -67h241v428q-72 6 -114 6q-70 0 -107 -24t-50.5 -72t-13.5 -129q0 -93 13 -142z" />
    <glyph glyph-name="uni066F.fina" unicode="&#x66f;" horiz-adv-x="855" 
d="M855 0h-106v-36q0 -94 -58.5 -144.5t-153.5 -50.5h-281q-96 0 -156 50.5t-60 144.5q0 73 33 263l38 -6q-16 -99 -22.5 -151.5t-6.5 -86.5q0 -87 45.5 -133.5t133.5 -46.5h269q90 0 135 46.5t45 134.5v16h-159q-63 0 -98.5 22t-50.5 72t-15 138q0 87 16 145.5t59 91
t120 32.5q22 0 72.5 -3t82.5 -6l12 -1v-457h106v-34zM710 34v428l-56 4q-47 4 -60 4q-95 0 -131.5 -57t-36.5 -176q0 -76 14 -120t45.5 -63.5t86.5 -19.5h138z" />
    <glyph glyph-name="uni06A1.init" unicode="&#x6a1;" horiz-adv-x="559" 
d="M492 491v-491h-492v34h167q-22 36 -28.5 78t-6.5 111q0 113 17 170.5t62.5 81.5t136.5 24q71 0 132 -7zM453 462q-72 6 -114 6q-70 0 -107 -24t-50.5 -72t-13.5 -129q0 -93 13 -142t31 -67h241v428z" />
    <glyph glyph-name="uni06A1.medi" unicode="&#x6a1;" horiz-adv-x="574" 
d="M574 34v-34h-574v34h167q-22 36 -28.5 78t-6.5 111q0 113 17 170.5t62.5 81.5t136.5 24q71 0 132 -7l12 -1v-457h82zM181 101q13 -49 31 -67h241v428q-72 6 -114 6q-70 0 -107 -24t-50.5 -72t-13.5 -129q0 -93 13 -142z" />
    <glyph glyph-name="uni06A1.fina" unicode="&#x6a1;" horiz-adv-x="945" 
d="M945 34v-34h-664q-104 0 -156.5 17.5t-68.5 47t-16 77.5q0 41 10 112t23 134l28 -1l-4 -26q-23 -147 -23 -209q0 -52 20.5 -77t64.5 -33t131 -8h247q-22 36 -28.5 78t-6.5 111q0 113 17 170.5t62.5 81.5t136.5 24q71 0 132 -7l12 -1v-457h83zM551 101q13 -49 31 -67h241
v428q-72 6 -114 6q-70 0 -107 -24t-50.5 -72t-13.5 -129q0 -93 13 -142z" />
    <glyph glyph-name="uni06BA.init" unicode="&#x6ba;" horiz-adv-x="275" 
d="M0 0zM188 500v-500h-188v34h149v466h39z" />
    <glyph glyph-name="uni06BA.medi" unicode="&#x6ba;" horiz-adv-x="336" 
d="M0 0zM336 34v-34h-336v34h149v466h39v-466h148z" />
    <glyph glyph-name="uni06C2.init" unicode="&#x6c2;" horiz-adv-x="275" 
d="M0 0zM188 500v-500h-188v34h149v466h39zM118 -59h31l-43 -210h-40zM264 624l-194 -38l-8 22l50 13q-31 27 -31 65q0 34 23.5 58.5t61.5 24.5q23 0 43 -8.5t27 -15.5l-8 -23q-6 5 -19.5 10t-29.5 5q-28 0 -46 -18t-18 -43q0 -29 24 -47l116 31z" />
    <glyph glyph-name="uni06C2.medi" unicode="&#x6c2;" horiz-adv-x="521" 
d="M0 0zM521 0h-123v-312l-10 -1q-5 -1 -20 -1.5t-22 -1.5q-84 0 -129 19.5t-69.5 87t-25.5 209.5h-122v34h161v-25q0 -145 19 -205.5t55 -73.5t124 -15v319h162v-34zM359 310l-194 -38l-8 22l50 13q-31 27 -31 65q0 34 23.5 58.5t61.5 24.5q23 0 43 -8.5t27 -15.5l-8 -23
q-6 5 -19.5 10t-29.5 5q-28 0 -46 -18t-18 -43q0 -29 24 -47l116 31z" />
    <glyph glyph-name="uni06C2.fina" unicode="&#x6c2;" horiz-adv-x="574" 
d="M40 0zM574 34v-34h-319q-84 0 -131 27.5t-65.5 81t-18.5 140.5q0 133 44.5 197t150.5 64q38 0 107.5 -3.5t111.5 -6.5v-466h120zM96.5 127q17.5 -47 59.5 -70t116 -23h143v434q-124 7 -157 7q-97 0 -138 -53.5t-41 -169.5q0 -78 17.5 -125zM373 624l-194 -38l-8 22l50 13
q-31 27 -31 65q0 34 23.5 58.5t61.5 24.5q23 0 43 -8.5t27 -15.5l-8 -23q-6 5 -19.5 10t-29.5 5q-28 0 -46 -18t-18 -43q0 -29 24 -47l116 31z" />
    <glyph glyph-name="uni06C3.fina" unicode="&#x6c3;" horiz-adv-x="578" 
d="M40 0zM578 34v-34h-163v469q-21 3 -82 4.5t-92 1.5q-87 0 -124 -48.5t-37 -155.5v-271h-40v274q0 114 41.5 175.5t123.5 61.5q40 0 99 -2t111 -5v10l2 -10l25 -2l12 -1v-467h124zM199 680h58v-57h-58v57zM306 680h58v-57h-58v57z" />
    <glyph glyph-name="uniFB51" unicode="&#x671;" horiz-adv-x="227" arabic-form="final" 
d="M0 0zM227 34v-34h-130v644h39v-610h91zM-5 720h48q0 40 30.5 70.5t81.5 30.5q38 0 60.5 -22t22.5 -79v-27h-243v27zM210 720q0 45 -18 60.5t-45 15.5q-35 0 -60 -19.5t-25 -56.5h148z" />
    <glyph glyph-name="uniFB57" unicode="&#x67e;" horiz-adv-x="771" arabic-form="final" 
d="M54 0zM771 34v-34h-476q-104 0 -156.5 17.5t-68.5 47.5t-16 78q0 39 9 108.5t22 136.5l28 -1l-10 -83q-15 -112 -15 -152q0 -52 20.5 -77t64.5 -33t131 -8h284v466h39v-466h144zM280 -80h58v-60h-58v60zM387 -80h58v-60h-58v60zM332 -191h61v-61h-61v61z" />
    <glyph glyph-name="uniFB58" unicode="&#x67e;" horiz-adv-x="275" arabic-form="initial" 
d="M0 0zM188 500v-500h-188v34h149v466h39zM83 -80h58v-60h-58v60zM190 -80h58v-60h-58v60zM135 -191h61v-61h-61v61z" />
    <glyph glyph-name="uniFB59" unicode="&#x67e;" horiz-adv-x="336" arabic-form="medial" 
d="M0 0zM336 34v-34h-336v34h149v466h39v-466h148zM85 -80h58v-60h-58v60zM192 -80h58v-60h-58v60zM137 -191h61v-61h-61v61z" />
    <glyph glyph-name="uniFB67" unicode="&#x679;" horiz-adv-x="771" arabic-form="final" 
d="M54 0zM771 34v-34h-476q-104 0 -156.5 17.5t-68.5 47.5t-16 78q0 39 9 108.5t22 136.5l28 -1l-10 -83q-15 -112 -15 -152q0 -52 20.5 -77t64.5 -33t131 -8h284v466h39v-466h144zM457 571v-71h-193v33h19v169h35v-106q14 27 27.5 39.5t42.5 12.5q69 0 69 -77zM336.5 587
q-18.5 -23 -18.5 -49v-5h102v38q0 19 -7.5 29t-26.5 10q-31 0 -49.5 -23z" />
    <glyph glyph-name="uniFB68" unicode="&#x679;" horiz-adv-x="275" arabic-form="initial" 
d="M0 0zM188 500v-500h-188v34h149v466h39zM260 664v-71h-193v33h19v169h35v-106q14 27 27.5 39.5t42.5 12.5q69 0 69 -77zM139.5 680q-18.5 -23 -18.5 -49v-5h102v38q0 19 -7.5 29t-26.5 10q-31 0 -49.5 -23z" />
    <glyph glyph-name="uniFB69" unicode="&#x679;" horiz-adv-x="336" arabic-form="medial" 
d="M0 0zM336 34v-34h-336v34h149v466h39v-466h148zM262 664v-71h-193v33h19v169h35v-106q14 27 27.5 39.5t42.5 12.5q69 0 69 -77zM141.5 680q-18.5 -23 -18.5 -49v-5h102v38q0 19 -7.5 29t-26.5 10q-31 0 -49.5 -23z" />
    <glyph glyph-name="uniFB6B" unicode="&#x6a4;" horiz-adv-x="945" arabic-form="final" 
d="M40 0zM945 34v-34h-664q-104 0 -156.5 17.5t-68.5 47t-16 77.5q0 41 10 112t23 134l28 -1l-4 -26q-23 -147 -23 -209q0 -52 20.5 -77t64.5 -33t131 -8h247q-22 36 -28.5 78t-6.5 111q0 113 17 170.5t62.5 81.5t136.5 24q71 0 132 -7l12 -1v-457h83zM551 101
q13 -49 31 -67h241v428q-72 6 -114 6q-70 0 -107 -24t-50.5 -72t-13.5 -129q0 -93 13 -142zM674 765h61v-61h-61v61zM622 653h58v-60h-58v60zM729 653h58v-60h-58v60z" />
    <glyph glyph-name="uniFB6C" unicode="&#x6a4;" horiz-adv-x="559" arabic-form="initial" 
d="M0 0zM492 491v-491h-492v34h167q-22 36 -28.5 78t-6.5 111q0 113 17 170.5t62.5 81.5t136.5 24q71 0 132 -7zM453 462q-72 6 -114 6q-70 0 -107 -24t-50.5 -72t-13.5 -129q0 -93 13 -142t31 -67h241v428zM306 765h61v-61h-61v61zM254 653h58v-60h-58v60zM361 653h58v-60
h-58v60z" />
    <glyph glyph-name="uniFB6D" unicode="&#x6a4;" horiz-adv-x="574" arabic-form="medial" 
d="M0 0zM574 34v-34h-574v34h167q-22 36 -28.5 78t-6.5 111q0 113 17 170.5t62.5 81.5t136.5 24q71 0 132 -7l12 -1v-457h82zM181 101q13 -49 31 -67h241v428q-72 6 -114 6q-70 0 -107 -24t-50.5 -72t-13.5 -129q0 -93 13 -142zM258 765h61v-61h-61v61zM206 653h58v-60h-58
v60zM313 653h58v-60h-58v60z" />
    <glyph glyph-name="uniFB7B" unicode="&#x686;" horiz-adv-x="591" arabic-form="final" 
d="M105 -262q-58 54 -58 160q0 99 50 145.5t150 46.5q61 0 112 -16t75 -36v322q0 54 -32.5 82.5t-89.5 28.5q-30 0 -95.5 -9t-103.5 -17l-3 35q9 2 21.5 4t27.5 5q118 21 161 21q57 0 105.5 -36.5t47.5 -138.5v-301h118v-34h-157q-29 20 -80 36.5t-108 16.5
q-78 0 -117.5 -36t-39.5 -119q0 -181 196 -181l7 -34l-15 1q-114 0 -172 54zM250 -88h68v-78h-68v78zM402 -88h68v-78h-68v78zM328 -207h61v-71h-61v71z" />
    <glyph glyph-name="uniFB7C" unicode="&#x686;" horiz-adv-x="516" arabic-form="initial" 
d="M0 0zM408.5 473.5q48.5 -36.5 47.5 -138.5v-335h-456v34h417v326q0 54 -32.5 82.5t-89.5 28.5q-30 0 -95.5 -9t-103.5 -17l-3 35q9 2 21.5 4t27.5 5q118 21 161 21q57 0 105.5 -36.5zM180 -80h58v-60h-58v60zM287 -80h58v-60h-58v60zM232 -191h61v-61h-61v61z" />
    <glyph glyph-name="uniFB7D" unicode="&#x686;" horiz-adv-x="577" arabic-form="medial" 
d="M0 0zM577 34v-34h-577v34h417v326q0 54 -32.5 82.5t-89.5 28.5q-30 0 -95.5 -9t-103.5 -17l-3 35q9 2 21.5 4t27.5 5q118 21 161 21q57 0 105.5 -36.5t47.5 -138.5v-301h121zM204 -80h58v-60h-58v60zM311 -80h58v-60h-58v60zM256 -191h61v-61h-61v61z" />
    <glyph glyph-name="uniFB89" unicode="&#x688;" horiz-adv-x="494" arabic-form="final" 
d="M8 0zM494 34v-34h-454v34h328v169q0 160 -63 222t-147 62h-67l-2 25q-3 2 20.5 5t49.5 3q102 0 175 -70.5t73 -251.5v-164h87zM201 691v-71h-193v33h19v169h35v-106q14 27 27.5 39.5t42.5 12.5q69 0 69 -77zM80.5 707q-18.5 -23 -18.5 -49v-5h102v38q0 19 -7.5 29
t-26.5 10q-31 0 -49.5 -23z" />
    <glyph glyph-name="uniFB8B" unicode="&#x698;" horiz-adv-x="377" arabic-form="final" 
d="M40 0zM377 0h-99v-22q0 -116 -40 -172t-123 -56q-20 0 -54 4l-21 2v33l32 -2q30 -3 50 -3q58 0 87.5 47t29.5 130v537h39v-464h99v-34zM225 765h61v-61h-61v61zM173 653h58v-60h-58v60zM280 653h58v-60h-58v60z" />
    <glyph glyph-name="uniFB8D" unicode="&#x691;" horiz-adv-x="377" arabic-form="final" 
d="M40 0zM377 0h-99v-22q0 -116 -40 -172t-123 -56q-20 0 -54 4l-21 2v33l32 -2q30 -3 50 -3q58 0 87.5 47t29.5 130v537h39v-464h99v-34zM350 664v-71h-193v33h19v169h35v-106q14 27 27.5 39.5t42.5 12.5q69 0 69 -77zM229.5 680q-18.5 -23 -18.5 -49v-5h102v38
q0 19 -7.5 29t-26.5 10q-31 0 -49.5 -23z" />
    <glyph glyph-name="uniFB8F" unicode="&#x6a9;" horiz-adv-x="785" arabic-form="final" 
d="M785 34v-34h-504q-104 0 -156.5 17.5t-68.5 47.5t-16 78q0 61 27 217l29 -1l-6 -48q-1 -9 -8.5 -66t-7.5 -93q0 -52 20.5 -77t64.5 -33t131 -8h338v159q0 68 -21 118.5t-86 51.5h-273l-39 53l47 92q17 33 56 89.5t79 107.5l25 -14q-61 -92 -81 -126t-38 -68l-52 -100h272
q72 0 111 -48t39 -157v-158h118z" />
    <glyph glyph-name="uniFB90" unicode="&#x6a9;" horiz-adv-x="551" arabic-form="initial" 
d="M0 0zM452 349q39 -48 39 -157v-192h-491v34h452v159q0 68 -21 118.5t-86 51.5h-273l-39 53l47 92q17 33 56 89.5t79 107.5l25 -14q-61 -92 -81 -126t-38 -68l-52 -100h272q72 0 111 -48z" />
    <glyph glyph-name="uniFB91" unicode="&#x6a9;" horiz-adv-x="640" arabic-form="medial" 
d="M0 0zM640 34v-34h-640v34h452v159q0 68 -21 118.5t-86 51.5h-273l-39 53l47 92q17 33 56 89.5t79 107.5l25 -14q-61 -92 -81 -126t-38 -68l-52 -100h272q72 0 111 -48t39 -157v-158h149z" />
    <glyph glyph-name="uniFB93" unicode="&#x6af;" horiz-adv-x="785" arabic-form="final" 
d="M40 0zM785 34v-34h-504q-104 0 -156.5 17.5t-68.5 47.5t-16 78q0 61 27 217l29 -1l-6 -48q-1 -9 -8.5 -66t-7.5 -93q0 -52 20.5 -77t64.5 -33t131 -8h338v159q0 68 -21 118.5t-86 51.5h-273l-39 53l47 92q17 33 56 89.5t79 107.5l25 -14q-61 -92 -81 -126t-38 -68
l-52 -100h272q72 0 111 -48t39 -157v-158h118zM174 467l27 55q15 30 58.5 91.5t84.5 110.5l20 -11q-42 -52 -92 -123.5t-61 -95.5l-23 -46z" />
    <glyph glyph-name="uniFB94" unicode="&#x6af;" horiz-adv-x="551" arabic-form="initial" 
d="M0 0zM452 349q39 -48 39 -157v-192h-491v34h452v159q0 68 -21 118.5t-86 51.5h-273l-39 53l47 92q17 33 56 89.5t79 107.5l25 -14q-61 -92 -81 -126t-38 -68l-52 -100h272q72 0 111 -48zM-4 467l27 55q15 30 58.5 91.5t84.5 110.5l20 -11q-42 -52 -92 -123.5t-61 -95.5
l-23 -46z" />
    <glyph glyph-name="uniFB95" unicode="&#x6af;" horiz-adv-x="640" arabic-form="medial" 
d="M0 0zM640 34v-34h-640v34h452v159q0 68 -21 118.5t-86 51.5h-273l-39 53l47 92q17 33 56 89.5t79 107.5l25 -14q-61 -92 -81 -126t-38 -68l-52 -100h272q72 0 111 -48t39 -157v-158h149zM-4 467l27 55q15 30 58.5 91.5t84.5 110.5l20 -11q-42 -52 -92 -123.5t-61 -95.5
l-23 -46z" />
    <glyph glyph-name="uniFB9F" unicode="&#x6ba;" horiz-adv-x="638" arabic-form="final" 
d="M638 0h-122v-57q0 -69 -34.5 -111.5t-87.5 -61t-111 -18.5q-66 0 -121.5 23.5t-88.5 68t-33 104.5q0 39 13 134t30 190l39 -2q-18 -113 -29 -202t-11 -121q0 -49 27 -85.5t73 -56t101 -19.5q79 0 136.5 39.5t57.5 122.5v552h39v-466h122v-34z" />
    <glyph glyph-name="uniFBA7" unicode="&#x6c1;" horiz-adv-x="578" arabic-form="final" 
d="M578 34v-34h-163v469q-21 3 -82 4.5t-92 1.5q-87 0 -124 -48.5t-37 -155.5v-271h-40v274q0 114 41.5 175.5t123.5 61.5q40 0 99 -2t111 -5v10l2 -10l25 -2l12 -1v-467h124z" />
    <glyph glyph-name="uniFBA8" unicode="&#x6c1;" horiz-adv-x="275" arabic-form="initial" 
d="M0 0zM188 500v-500h-188v34h149v466h39zM118 -59h31l-43 -210h-40z" />
    <glyph glyph-name="uniFBA9" unicode="&#x6c1;" horiz-adv-x="521" arabic-form="medial" 
d="M521 0h-123v-312l-10 -1q-5 -1 -20 -1.5t-22 -1.5q-84 0 -129 19.5t-69.5 87t-25.5 209.5h-122v34h161v-25q0 -145 19 -205.5t55 -73.5t124 -15v319h162v-34z" />
    <glyph glyph-name="uniFBAB" unicode="&#x6be;" horiz-adv-x="753" arabic-form="final" 
d="M753 34v-34h-713v34h60v120q1 46 24 83.5t60 58.5t79 21q41 0 78.5 -19.5t61 -56.5t23.5 -87v-120h182v166q0 156 -75 220.5t-203 64.5q-46 0 -91 -5.5t-108 -16.5l-1 27q-5 0 29.5 8.5t81 15t92.5 6.5q132 0 223 -63t91 -253v-170h106zM175 250q-36 -34 -36 -82v-134
h248v133q0 49 -35 83t-88 34t-89 -34z" />
    <glyph glyph-name="uniFBAC" unicode="&#x6be;" horiz-adv-x="735" arabic-form="initial" 
d="M0 0zM577.5 457q91.5 -63 91.5 -253v-204h-669v34h122v120q0 46 23 83.5t60.5 58.5t79.5 21q41 0 78 -19.5t60.5 -56.5t23.5 -87v-120h183v166q0 156 -75.5 220.5t-203.5 64.5q-46 0 -92 -6t-106 -16l-1 27q-6 0 28.5 8t81.5 15t93 7q131 0 222.5 -63zM196 250
q-36 -34 -36 -82v-134h248v133q0 49 -35 83t-88 34t-89 -34z" />
    <glyph glyph-name="uniFBAD" unicode="&#x6be;" horiz-adv-x="774" arabic-form="medial" 
d="M0 0zM774 34v-34h-774v34h122v120q0 46 23 83.5t60.5 58.5t79.5 21q41 0 78 -19.5t60.5 -56.5t23.5 -87v-120h183v166q0 156 -75.5 220.5t-203.5 64.5q-46 0 -92 -6t-106 -16l-1 27q-6 0 28.5 8t81.5 15t93 7q131 0 222.5 -63t91.5 -253v-170h105zM196 250
q-36 -34 -36 -82v-134h248v133q0 49 -35 83t-88 34t-89 -34z" />
    <glyph glyph-name="uniFBAF" unicode="&#x6d2;" horiz-adv-x="710" arabic-form="final" 
d="M92 0q-10 -22 -10 -67q0 -68 54.5 -106t180.5 -38h305v-34h-338q-139 0 -191 49.5t-52 134.5q0 31 7 61h-3l3 1q6 22 11 33h651v-34h-618z" />
    <glyph glyph-name="uniFBB1" unicode="&#x6d3;" horiz-adv-x="710" arabic-form="final" 
d="M41 0zM92 0q-10 -22 -10 -67q0 -68 54.5 -106t180.5 -38h305v-34h-338q-139 0 -191 49.5t-52 134.5q0 31 7 61h-3l3 1q6 22 11 33h651v-34h-618zM268 191l-194 -38l-8 22l50 13q-31 27 -31 65q0 34 23.5 58.5t61.5 24.5q23 0 43 -8.5t27 -15.5l-8 -23q-6 5 -19.5 10
t-29.5 5q-28 0 -46 -18t-18 -43q0 -29 24 -47l116 31z" />
    <glyph glyph-name="uniFBE8" unicode="&#x649;" horiz-adv-x="275" arabic-form="initial" 
d="M0 0zM188 500v-500h-188v34h149v466h39z" />
    <glyph glyph-name="uniFBE9" unicode="&#x649;" horiz-adv-x="336" arabic-form="medial" 
d="M0 0zM336 34v-34h-336v34h149v466h39v-466h148z" />
    <glyph glyph-name="uniFBFD" unicode="&#x6cc;" horiz-adv-x="882" arabic-form="final" 
d="M40 0zM882 0h-137q1 -10 1 -30q0 -56 -22 -106t-69.5 -81t-119.5 -31h-253q-76 0 -131 27.5t-83 72.5t-28 96q0 26 7 91.5t18 143.5l39 -6q-25 -163 -25 -214q0 -53 28 -93.5t73.5 -62t96.5 -21.5l256 -2q56 0 96 27.5t60 69.5t20 85q0 12 -2 34h-37q-70 0 -101 18l14 25
q12 -6 33.5 -7.5t58.5 -1.5h207v-34z" />
    <glyph glyph-name="uniFBFE" unicode="&#x6cc;" horiz-adv-x="275" arabic-form="initial" 
d="M0 0zM188 500v-500h-188v34h149v466h39zM83 -80h58v-57h-58v57zM190 -80h58v-57h-58v57z" />
    <glyph glyph-name="uniFBFF" unicode="&#x6cc;" horiz-adv-x="336" arabic-form="medial" 
d="M0 0zM336 34v-34h-336v34h149v466h39v-466h148zM85 -80h58v-57h-58v57zM192 -80h58v-57h-58v57z" />
    <glyph glyph-name="uniFC64" unicode="&#xfc64;" horiz-adv-x="709" arabic-form="final" 
d="M40 0zM709 34v-34h-171v469q-138 -2 -260 -22v-469q0 -116 -40 -172t-123 -56q-20 0 -54 4l-21 2v33l32 -2q30 -3 50 -3q58 0 87.5 47t29.5 130v506q39 12 124.5 22.5t213.5 10.5v-466h132zM648 624l-194 -38l-8 22l50 13q-31 27 -31 65q0 34 23.5 58.5t61.5 24.5
q23 0 43 -8.5t27 -15.5l-8 -23q-6 5 -19.5 10t-29.5 5q-28 0 -46 -18t-18 -43q0 -29 24 -47l116 31z" />
    <glyph glyph-name="uniFC65" unicode="&#xfc65;" horiz-adv-x="709" arabic-form="final" 
d="M40 0zM709 34v-34h-171v469q-138 -2 -260 -22v-469q0 -116 -40 -172t-123 -56q-20 0 -54 4l-21 2v33l32 -2q30 -3 50 -3q58 0 87.5 47t29.5 130v506q39 12 124.5 22.5t213.5 10.5v-466h132zM648 624l-194 -38l-8 22l50 13q-31 27 -31 65q0 34 23.5 58.5t61.5 24.5
q23 0 43 -8.5t27 -15.5l-8 -23q-6 5 -19.5 10t-29.5 5q-28 0 -46 -18t-18 -43q0 -29 24 -47l116 31zM234 646h44v-53h-44v53z" />
    <glyph glyph-name="uniFC67" unicode="&#xfc67;" horiz-adv-x="926" arabic-form="final" 
d="M40 0zM308 500h-44v53h44v-53zM926 34v-34h-171v468q-146 -3 -239 -16v-509q0 -69 -34.5 -111.5t-87.5 -61t-111 -18.5q-66 0 -121.5 23.5t-88.5 68t-33 104.5q0 39 13 134t30 190l39 -2q-18 -113 -29 -202t-11 -121q0 -49 27 -85.5t73 -56t101 -19.5q79 0 136.5 39.5
t57.5 122.5v529q53 10 135.5 16.5t181.5 6.5v-466h132zM865 624l-194 -38l-8 22l50 13q-31 27 -31 65q0 34 23.5 58.5t61.5 24.5q23 0 43 -8.5t27 -15.5l-8 -23q-6 5 -19.5 10t-29.5 5q-28 0 -46 -18t-18 -43q0 -29 24 -47l116 31z" />
    <glyph glyph-name="uniFC68" unicode="&#xfc68;" horiz-adv-x="1032" arabic-form="final" 
d="M40 0zM1032 34v-34h-171v467h-329q-177 0 -177 -141q0 -56 11.5 -81.5t49 -41t128.5 -33.5q108 -19 155 -65.5t47 -134.5q0 -56 -22 -106t-69.5 -81t-119.5 -31h-253q-76 0 -131 27.5t-83 72.5t-28 96q0 26 7 91.5t18 143.5l39 -6q-25 -163 -25 -214q0 -53 28 -93.5
t73.5 -62t96.5 -21.5l256 -2q56 0 96 27.5t60 69.5t20 85q0 49 -13.5 79.5t-51 52t-110.5 35.5q-85 14 -130 33t-66.5 55.5t-21.5 103.5q0 88 52.5 131.5t164.5 43.5h367v-466h132zM971 624l-194 -38l-8 22l50 13q-31 27 -31 65q0 34 23.5 58.5t61.5 24.5q23 0 43 -8.5
t27 -15.5l-8 -23q-6 5 -19.5 10t-29.5 5q-28 0 -46 -18t-18 -43q0 -29 24 -47l116 31z" />
    <glyph glyph-name="uniFC69" unicode="&#xfc69;" horiz-adv-x="1032" arabic-form="final" 
d="M40 0zM1032 34v-34h-171v467h-329q-177 0 -177 -141q0 -56 11.5 -81.5t49 -41t128.5 -33.5q108 -19 155 -65.5t47 -134.5q0 -56 -22 -106t-69.5 -81t-119.5 -31h-253q-76 0 -131 27.5t-83 72.5t-28 96q0 26 7 91.5t18 143.5l39 -6q-25 -163 -25 -214q0 -53 28 -93.5
t73.5 -62t96.5 -21.5l256 -2q56 0 96 27.5t60 69.5t20 85q0 49 -13.5 79.5t-51 52t-110.5 35.5q-85 14 -130 33t-66.5 55.5t-21.5 103.5q0 88 52.5 131.5t164.5 43.5h367v-466h132zM971 624l-194 -38l-8 22l50 13q-31 27 -31 65q0 34 23.5 58.5t61.5 24.5q23 0 43 -8.5
t27 -15.5l-8 -23q-6 5 -19.5 10t-29.5 5q-28 0 -46 -18t-18 -43q0 -29 24 -47l116 31zM303 -320h58v-57h-58v57zM410 -320h58v-57h-58v57z" />
    <glyph glyph-name="uniFC6A" unicode="&#xfc6a;" horiz-adv-x="709" arabic-form="final" 
d="M40 0zM709 34v-34h-171v469q-138 -2 -260 -22v-469q0 -116 -40 -172t-123 -56q-20 0 -54 4l-21 2v33l32 -2q30 -3 50 -3q58 0 87.5 47t29.5 130v506q39 12 124.5 22.5t213.5 10.5v-466h132zM528 -80h44v-53h-44v53z" />
    <glyph glyph-name="uniFC6B" unicode="&#xfc6b;" horiz-adv-x="709" arabic-form="final" 
d="M40 0zM709 34v-34h-171v469q-138 -2 -260 -22v-469q0 -116 -40 -172t-123 -56q-20 0 -54 4l-21 2v33l32 -2q30 -3 50 -3q58 0 87.5 47t29.5 130v506q39 12 124.5 22.5t213.5 10.5v-466h132zM528 -80h44v-53h-44v53zM234 646h44v-53h-44v53z" />
    <glyph glyph-name="uniFC6D" unicode="&#xfc6d;" horiz-adv-x="926" arabic-form="final" 
d="M40 0zM308 500h-44v53h44v-53zM926 34v-34h-171v468q-146 -3 -239 -16v-509q0 -69 -34.5 -111.5t-87.5 -61t-111 -18.5q-66 0 -121.5 23.5t-88.5 68t-33 104.5q0 39 13 134t30 190l39 -2q-18 -113 -29 -202t-11 -121q0 -49 27 -85.5t73 -56t101 -19.5q79 0 136.5 39.5
t57.5 122.5v529q53 10 135.5 16.5t181.5 6.5v-466h132zM745 -80h44v-53h-44v53z" />
    <glyph glyph-name="uniFC6E" unicode="&#xfc6e;" horiz-adv-x="1032" arabic-form="final" 
d="M40 0zM1032 34v-34h-171v467h-329q-177 0 -177 -141q0 -56 11.5 -81.5t49 -41t128.5 -33.5q108 -19 155 -65.5t47 -134.5q0 -56 -22 -106t-69.5 -81t-119.5 -31h-253q-76 0 -131 27.5t-83 72.5t-28 96q0 26 7 91.5t18 143.5l39 -6q-25 -163 -25 -214q0 -53 28 -93.5
t73.5 -62t96.5 -21.5l256 -2q56 0 96 27.5t60 69.5t20 85q0 49 -13.5 79.5t-51 52t-110.5 35.5q-85 14 -130 33t-66.5 55.5t-21.5 103.5q0 88 52.5 131.5t164.5 43.5h367v-466h132zM851 -80h44v-53h-44v53z" />
    <glyph glyph-name="uniFC6F" unicode="&#xfc6f;" horiz-adv-x="1032" arabic-form="final" 
d="M40 0zM1032 34v-34h-171v467h-329q-177 0 -177 -141q0 -56 11.5 -81.5t49 -41t128.5 -33.5q108 -19 155 -65.5t47 -134.5q0 -56 -22 -106t-69.5 -81t-119.5 -31h-253q-76 0 -131 27.5t-83 72.5t-28 96q0 26 7 91.5t18 143.5l39 -6q-25 -163 -25 -214q0 -53 28 -93.5
t73.5 -62t96.5 -21.5l256 -2q56 0 96 27.5t60 69.5t20 85q0 49 -13.5 79.5t-51 52t-110.5 35.5q-85 14 -130 33t-66.5 55.5t-21.5 103.5q0 88 52.5 131.5t164.5 43.5h367v-466h132zM851 -80h44v-53h-44v53zM303 -320h58v-57h-58v57zM410 -320h58v-57h-58v57z" />
    <glyph glyph-name="uniFC70" unicode="&#xfc70;" horiz-adv-x="709" arabic-form="final" 
d="M40 0zM709 34v-34h-171v469q-138 -2 -260 -22v-469q0 -116 -40 -172t-123 -56q-20 0 -54 4l-21 2v33l32 -2q30 -3 50 -3q58 0 87.5 47t29.5 130v506q39 12 124.5 22.5t213.5 10.5v-466h132zM469 650h58v-57h-58v57zM576 650h58v-57h-58v57z" />
    <glyph glyph-name="uniFC71" unicode="&#xfc71;" horiz-adv-x="709" arabic-form="final" 
d="M40 0zM709 34v-34h-171v469q-138 -2 -260 -22v-469q0 -116 -40 -172t-123 -56q-20 0 -54 4l-21 2v33l32 -2q30 -3 50 -3q58 0 87.5 47t29.5 130v506q39 12 124.5 22.5t213.5 10.5v-466h132zM469 650h58v-57h-58v57zM576 650h58v-57h-58v57zM234 646h44v-53h-44v53z" />
    <glyph glyph-name="uniFC73" unicode="&#xfc73;" horiz-adv-x="926" arabic-form="final" 
d="M40 0zM308 500h-44v53h44v-53zM926 34v-34h-171v468q-146 -3 -239 -16v-509q0 -69 -34.5 -111.5t-87.5 -61t-111 -18.5q-66 0 -121.5 23.5t-88.5 68t-33 104.5q0 39 13 134t30 190l39 -2q-18 -113 -29 -202t-11 -121q0 -49 27 -85.5t73 -56t101 -19.5q79 0 136.5 39.5
t57.5 122.5v529q53 10 135.5 16.5t181.5 6.5v-466h132zM686 650h58v-57h-58v57zM793 650h58v-57h-58v57z" />
    <glyph glyph-name="uniFC74" unicode="&#xfc74;" horiz-adv-x="1032" arabic-form="final" 
d="M40 0zM1032 34v-34h-171v467h-329q-177 0 -177 -141q0 -56 11.5 -81.5t49 -41t128.5 -33.5q108 -19 155 -65.5t47 -134.5q0 -56 -22 -106t-69.5 -81t-119.5 -31h-253q-76 0 -131 27.5t-83 72.5t-28 96q0 26 7 91.5t18 143.5l39 -6q-25 -163 -25 -214q0 -53 28 -93.5
t73.5 -62t96.5 -21.5l256 -2q56 0 96 27.5t60 69.5t20 85q0 49 -13.5 79.5t-51 52t-110.5 35.5q-85 14 -130 33t-66.5 55.5t-21.5 103.5q0 88 52.5 131.5t164.5 43.5h367v-466h132zM792 650h58v-57h-58v57zM899 650h58v-57h-58v57z" />
    <glyph glyph-name="uniFC75" unicode="&#xfc75;" horiz-adv-x="1032" arabic-form="final" 
d="M40 0zM1032 34v-34h-171v467h-329q-177 0 -177 -141q0 -56 11.5 -81.5t49 -41t128.5 -33.5q108 -19 155 -65.5t47 -134.5q0 -56 -22 -106t-69.5 -81t-119.5 -31h-253q-76 0 -131 27.5t-83 72.5t-28 96q0 26 7 91.5t18 143.5l39 -6q-25 -163 -25 -214q0 -53 28 -93.5
t73.5 -62t96.5 -21.5l256 -2q56 0 96 27.5t60 69.5t20 85q0 49 -13.5 79.5t-51 52t-110.5 35.5q-85 14 -130 33t-66.5 55.5t-21.5 103.5q0 88 52.5 131.5t164.5 43.5h367v-466h132zM792 650h58v-57h-58v57zM899 650h58v-57h-58v57zM303 -320h58v-57h-58v57zM410 -320h58v-57
h-58v57z" />
    <glyph glyph-name="uniFC76" unicode="&#xfc76;" horiz-adv-x="709" arabic-form="final" 
d="M40 0zM709 34v-34h-171v469q-138 -2 -260 -22v-469q0 -116 -40 -172t-123 -56q-20 0 -54 4l-21 2v33l32 -2q30 -3 50 -3q58 0 87.5 47t29.5 130v506q39 12 124.5 22.5t213.5 10.5v-466h132zM519 765h61v-61h-61v61zM467 653h58v-60h-58v60zM574 653h58v-60h-58v60z" />
    <glyph glyph-name="uniFC77" unicode="&#xfc77;" horiz-adv-x="709" arabic-form="final" 
d="M40 0zM709 34v-34h-171v469q-138 -2 -260 -22v-469q0 -116 -40 -172t-123 -56q-20 0 -54 4l-21 2v33l32 -2q30 -3 50 -3q58 0 87.5 47t29.5 130v506q39 12 124.5 22.5t213.5 10.5v-466h132zM519 765h61v-61h-61v61zM467 653h58v-60h-58v60zM574 653h58v-60h-58v60z
M234 646h44v-53h-44v53z" />
    <glyph glyph-name="uniFC79" unicode="&#xfc79;" horiz-adv-x="926" arabic-form="final" 
d="M40 0zM308 500h-44v53h44v-53zM926 34v-34h-171v468q-146 -3 -239 -16v-509q0 -69 -34.5 -111.5t-87.5 -61t-111 -18.5q-66 0 -121.5 23.5t-88.5 68t-33 104.5q0 39 13 134t30 190l39 -2q-18 -113 -29 -202t-11 -121q0 -49 27 -85.5t73 -56t101 -19.5q79 0 136.5 39.5
t57.5 122.5v529q53 10 135.5 16.5t181.5 6.5v-466h132zM736 765h61v-61h-61v61zM684 653h58v-60h-58v60zM791 653h58v-60h-58v60z" />
    <glyph glyph-name="uniFC7A" unicode="&#xfc7a;" horiz-adv-x="1032" arabic-form="final" 
d="M40 0zM1032 34v-34h-171v467h-329q-177 0 -177 -141q0 -56 11.5 -81.5t49 -41t128.5 -33.5q108 -19 155 -65.5t47 -134.5q0 -56 -22 -106t-69.5 -81t-119.5 -31h-253q-76 0 -131 27.5t-83 72.5t-28 96q0 26 7 91.5t18 143.5l39 -6q-25 -163 -25 -214q0 -53 28 -93.5
t73.5 -62t96.5 -21.5l256 -2q56 0 96 27.5t60 69.5t20 85q0 49 -13.5 79.5t-51 52t-110.5 35.5q-85 14 -130 33t-66.5 55.5t-21.5 103.5q0 88 52.5 131.5t164.5 43.5h367v-466h132zM842 765h61v-61h-61v61zM790 653h58v-60h-58v60zM897 653h58v-60h-58v60z" />
    <glyph glyph-name="uniFC7B" unicode="&#xfc7b;" horiz-adv-x="1032" arabic-form="final" 
d="M40 0zM1032 34v-34h-171v467h-329q-177 0 -177 -141q0 -56 11.5 -81.5t49 -41t128.5 -33.5q108 -19 155 -65.5t47 -134.5q0 -56 -22 -106t-69.5 -81t-119.5 -31h-253q-76 0 -131 27.5t-83 72.5t-28 96q0 26 7 91.5t18 143.5l39 -6q-25 -163 -25 -214q0 -53 28 -93.5
t73.5 -62t96.5 -21.5l256 -2q56 0 96 27.5t60 69.5t20 85q0 49 -13.5 79.5t-51 52t-110.5 35.5q-85 14 -130 33t-66.5 55.5t-21.5 103.5q0 88 52.5 131.5t164.5 43.5h367v-466h132zM842 765h61v-61h-61v61zM790 653h58v-60h-58v60zM897 653h58v-60h-58v60zM303 -320h58v-57
h-58v57zM410 -320h58v-57h-58v57z" />
    <glyph glyph-name="uniFC8A" unicode="&#xfc8a;" horiz-adv-x="709" arabic-form="final" 
d="M40 0zM709 34v-34h-171v469q-138 -2 -260 -22v-469q0 -116 -40 -172t-123 -56q-20 0 -54 4l-21 2v33l32 -2q30 -3 50 -3q58 0 87.5 47t29.5 130v506q39 12 124.5 22.5t213.5 10.5v-466h132zM528 646h44v-53h-44v53z" />
    <glyph glyph-name="uniFC8B" unicode="&#xfc8b;" horiz-adv-x="709" arabic-form="final" 
d="M40 0zM709 34v-34h-171v469q-138 -2 -260 -22v-469q0 -116 -40 -172t-123 -56q-20 0 -54 4l-21 2v33l32 -2q30 -3 50 -3q58 0 87.5 47t29.5 130v506q39 12 124.5 22.5t213.5 10.5v-466h132zM528 646h44v-53h-44v53zM234 646h44v-53h-44v53z" />
    <glyph glyph-name="uniFC8D" unicode="&#xfc8d;" horiz-adv-x="926" arabic-form="final" 
d="M40 0zM308 500h-44v53h44v-53zM926 34v-34h-171v468q-146 -3 -239 -16v-509q0 -69 -34.5 -111.5t-87.5 -61t-111 -18.5q-66 0 -121.5 23.5t-88.5 68t-33 104.5q0 39 13 134t30 190l39 -2q-18 -113 -29 -202t-11 -121q0 -49 27 -85.5t73 -56t101 -19.5q79 0 136.5 39.5
t57.5 122.5v529q53 10 135.5 16.5t181.5 6.5v-466h132zM745 646h44v-53h-44v53z" />
    <glyph glyph-name="uniFC8E" unicode="&#xfc8e;" horiz-adv-x="1032" arabic-form="final" 
d="M40 0zM1032 34v-34h-171v467h-329q-177 0 -177 -141q0 -56 11.5 -81.5t49 -41t128.5 -33.5q108 -19 155 -65.5t47 -134.5q0 -56 -22 -106t-69.5 -81t-119.5 -31h-253q-76 0 -131 27.5t-83 72.5t-28 96q0 26 7 91.5t18 143.5l39 -6q-25 -163 -25 -214q0 -53 28 -93.5
t73.5 -62t96.5 -21.5l256 -2q56 0 96 27.5t60 69.5t20 85q0 49 -13.5 79.5t-51 52t-110.5 35.5q-85 14 -130 33t-66.5 55.5t-21.5 103.5q0 88 52.5 131.5t164.5 43.5h367v-466h132zM851 646h44v-53h-44v53z" />
    <glyph glyph-name="uniFC8F" unicode="&#xfc8f;" horiz-adv-x="1032" arabic-form="final" 
d="M40 0zM1032 34v-34h-171v467h-329q-177 0 -177 -141q0 -56 11.5 -81.5t49 -41t128.5 -33.5q108 -19 155 -65.5t47 -134.5q0 -56 -22 -106t-69.5 -81t-119.5 -31h-253q-76 0 -131 27.5t-83 72.5t-28 96q0 26 7 91.5t18 143.5l39 -6q-25 -163 -25 -214q0 -53 28 -93.5
t73.5 -62t96.5 -21.5l256 -2q56 0 96 27.5t60 69.5t20 85q0 49 -13.5 79.5t-51 52t-110.5 35.5q-85 14 -130 33t-66.5 55.5t-21.5 103.5q0 88 52.5 131.5t164.5 43.5h367v-466h132zM851 646h44v-53h-44v53zM303 -320h58v-57h-58v57zM410 -320h58v-57h-58v57z" />
    <glyph glyph-name="uniFC91" unicode="&#xfc91;" horiz-adv-x="709" arabic-form="final" 
d="M40 0zM709 34v-34h-171v469q-138 -2 -260 -22v-469q0 -116 -40 -172t-123 -56q-20 0 -54 4l-21 2v33l32 -2q30 -3 50 -3q58 0 87.5 47t29.5 130v506q39 12 124.5 22.5t213.5 10.5v-466h132zM467 -80h58v-57h-58v57zM574 -80h58v-57h-58v57z" />
    <glyph glyph-name="uniFC92" unicode="&#xfc92;" horiz-adv-x="709" arabic-form="final" 
d="M40 0zM709 34v-34h-171v469q-138 -2 -260 -22v-469q0 -116 -40 -172t-123 -56q-20 0 -54 4l-21 2v33l32 -2q30 -3 50 -3q58 0 87.5 47t29.5 130v506q39 12 124.5 22.5t213.5 10.5v-466h132zM467 -80h58v-57h-58v57zM574 -80h58v-57h-58v57zM234 646h44v-53h-44v53z" />
    <glyph glyph-name="uniFC94" unicode="&#xfc94;" horiz-adv-x="926" arabic-form="final" 
d="M40 0zM308 500h-44v53h44v-53zM926 34v-34h-171v468q-146 -3 -239 -16v-509q0 -69 -34.5 -111.5t-87.5 -61t-111 -18.5q-66 0 -121.5 23.5t-88.5 68t-33 104.5q0 39 13 134t30 190l39 -2q-18 -113 -29 -202t-11 -121q0 -49 27 -85.5t73 -56t101 -19.5q79 0 136.5 39.5
t57.5 122.5v529q53 10 135.5 16.5t181.5 6.5v-466h132zM684 -80h58v-57h-58v57zM791 -80h58v-57h-58v57z" />
    <glyph glyph-name="uniFCFB" unicode="&#xfcfb;" horiz-adv-x="1495" arabic-form="isolated" 
d="M1407.5 382.5q10.5 -61.5 10.5 -104.5v-278h-173q-26 0 -52 10t-58 36q-31 -46 -91 -46h-183v467h-329q-177 0 -177 -141q0 -56 11.5 -81.5t49 -41t128.5 -33.5q108 -19 155 -65.5t47 -134.5q0 -56 -22 -106t-69.5 -81t-119.5 -31h-253q-76 0 -131 27.5t-83 72.5t-28 96
q0 26 7 91.5t18 143.5l39 -6q-25 -163 -25 -214q0 -53 28 -93.5t73.5 -62t96.5 -21.5l256 -2q56 0 96 27.5t60 69.5t20 85q0 49 -13.5 79.5t-51 52t-110.5 35.5q-85 14 -130 33t-66.5 55.5t-21.5 103.5q0 88 52.5 131.5t164.5 43.5h367v-466h135q92 0 92 159v257h39v-256
q0 -74 -16 -117q18 -17 47 -30t57 -13h125v270q0 50 -23 194l27 1q14 -55 24.5 -116.5z" />
    <glyph glyph-name="uniFCFC" unicode="&#xfcfc;" horiz-adv-x="1495" arabic-form="isolated" 
d="M40 0zM1407.5 382.5q10.5 -61.5 10.5 -104.5v-278h-173q-26 0 -52 10t-58 36q-31 -46 -91 -46h-183v467h-329q-177 0 -177 -141q0 -56 11.5 -81.5t49 -41t128.5 -33.5q108 -19 155 -65.5t47 -134.5q0 -56 -22 -106t-69.5 -81t-119.5 -31h-253q-76 0 -131 27.5t-83 72.5
t-28 96q0 26 7 91.5t18 143.5l39 -6q-25 -163 -25 -214q0 -53 28 -93.5t73.5 -62t96.5 -21.5l256 -2q56 0 96 27.5t60 69.5t20 85q0 49 -13.5 79.5t-51 52t-110.5 35.5q-85 14 -130 33t-66.5 55.5t-21.5 103.5q0 88 52.5 131.5t164.5 43.5h367v-466h135q92 0 92 159v257h39
v-256q0 -74 -16 -117q18 -17 47 -30t57 -13h125v270q0 50 -23 194l27 1q14 -55 24.5 -116.5zM303 -320h58v-57h-58v57zM410 -320h58v-57h-58v57z" />
    <glyph glyph-name="uniFCFD" unicode="&#xfcfd;" horiz-adv-x="1495" arabic-form="isolated" 
d="M40 0zM1407.5 382.5q10.5 -61.5 10.5 -104.5v-278h-173q-26 0 -52 10t-58 36q-31 -46 -91 -46h-183v467h-329q-177 0 -177 -141q0 -56 11.5 -81.5t49 -41t128.5 -33.5q108 -19 155 -65.5t47 -134.5q0 -56 -22 -106t-69.5 -81t-119.5 -31h-253q-76 0 -131 27.5t-83 72.5
t-28 96q0 26 7 91.5t18 143.5l39 -6q-25 -163 -25 -214q0 -53 28 -93.5t73.5 -62t96.5 -21.5l256 -2q56 0 96 27.5t60 69.5t20 85q0 49 -13.5 79.5t-51 52t-110.5 35.5q-85 14 -130 33t-66.5 55.5t-21.5 103.5q0 88 52.5 131.5t164.5 43.5h367v-466h135q92 0 92 159v257h39
v-256q0 -74 -16 -117q18 -17 47 -30t57 -13h125v270q0 50 -23 194l27 1q14 -55 24.5 -116.5zM1113 765h61v-61h-61v61zM1061 653h58v-60h-58v60zM1168 653h58v-60h-58v60z" />
    <glyph glyph-name="uniFCFE" unicode="&#xfcfe;" horiz-adv-x="1495" arabic-form="isolated" 
d="M40 0zM1407.5 382.5q10.5 -61.5 10.5 -104.5v-278h-173q-26 0 -52 10t-58 36q-31 -46 -91 -46h-183v467h-329q-177 0 -177 -141q0 -56 11.5 -81.5t49 -41t128.5 -33.5q108 -19 155 -65.5t47 -134.5q0 -56 -22 -106t-69.5 -81t-119.5 -31h-253q-76 0 -131 27.5t-83 72.5
t-28 96q0 26 7 91.5t18 143.5l39 -6q-25 -163 -25 -214q0 -53 28 -93.5t73.5 -62t96.5 -21.5l256 -2q56 0 96 27.5t60 69.5t20 85q0 49 -13.5 79.5t-51 52t-110.5 35.5q-85 14 -130 33t-66.5 55.5t-21.5 103.5q0 88 52.5 131.5t164.5 43.5h367v-466h135q92 0 92 159v257h39
v-256q0 -74 -16 -117q18 -17 47 -30t57 -13h125v270q0 50 -23 194l27 1q14 -55 24.5 -116.5zM1113 765h61v-61h-61v61zM1061 653h58v-60h-58v60zM1168 653h58v-60h-58v60zM303 -320h58v-57h-58v57zM410 -320h58v-57h-58v57z" />
    <glyph glyph-name="uniFD05" unicode="&#xfd05;" horiz-adv-x="1495" arabic-form="isolated" 
d="M1358.5 432.5q52.5 -77.5 52.5 -181.5v-251h-550v467h-329q-177 0 -177 -141q0 -56 11.5 -81.5t49 -41t128.5 -33.5q108 -19 155 -65.5t47 -134.5q0 -56 -22 -106t-69.5 -81t-119.5 -31h-253q-76 0 -131 27.5t-83 72.5t-28 96q0 26 7 91.5t18 143.5l39 -6
q-25 -163 -25 -214q0 -53 28 -93.5t73.5 -62t96.5 -21.5l256 -2q56 0 96 27.5t60 69.5t20 85q0 49 -13.5 79.5t-51 52t-110.5 35.5q-85 14 -130 33t-66.5 55.5t-21.5 103.5q0 88 52.5 131.5t164.5 43.5h367v-160q45 56 81.5 91t85.5 57t113 22q126 0 178.5 -77.5zM1077 450
q-51 -26 -85 -59t-70 -76q-11 -15 -22 -26v-255h472v216q0 97 -46.5 161.5t-137.5 64.5q-60 0 -111 -26z" />
    <glyph glyph-name="uniFD06" unicode="&#xfd06;" horiz-adv-x="1495" arabic-form="isolated" 
d="M40 0zM1358.5 432.5q52.5 -77.5 52.5 -181.5v-251h-550v467h-329q-177 0 -177 -141q0 -56 11.5 -81.5t49 -41t128.5 -33.5q108 -19 155 -65.5t47 -134.5q0 -56 -22 -106t-69.5 -81t-119.5 -31h-253q-76 0 -131 27.5t-83 72.5t-28 96q0 26 7 91.5t18 143.5l39 -6
q-25 -163 -25 -214q0 -53 28 -93.5t73.5 -62t96.5 -21.5l256 -2q56 0 96 27.5t60 69.5t20 85q0 49 -13.5 79.5t-51 52t-110.5 35.5q-85 14 -130 33t-66.5 55.5t-21.5 103.5q0 88 52.5 131.5t164.5 43.5h367v-160q45 56 81.5 91t85.5 57t113 22q126 0 178.5 -77.5zM1077 450
q-51 -26 -85 -59t-70 -76q-11 -15 -22 -26v-255h472v216q0 97 -46.5 161.5t-137.5 64.5q-60 0 -111 -26zM303 -320h58v-57h-58v57zM410 -320h58v-57h-58v57z" />
    <glyph glyph-name="uniFD07" unicode="&#xfd07;" horiz-adv-x="1495" arabic-form="isolated" 
d="M40 0zM1358.5 432.5q52.5 -77.5 52.5 -181.5v-251h-550v467h-329q-177 0 -177 -141q0 -56 11.5 -81.5t49 -41t128.5 -33.5q108 -19 155 -65.5t47 -134.5q0 -56 -22 -106t-69.5 -81t-119.5 -31h-253q-76 0 -131 27.5t-83 72.5t-28 96q0 26 7 91.5t18 143.5l39 -6
q-25 -163 -25 -214q0 -53 28 -93.5t73.5 -62t96.5 -21.5l256 -2q56 0 96 27.5t60 69.5t20 85q0 49 -13.5 79.5t-51 52t-110.5 35.5q-85 14 -130 33t-66.5 55.5t-21.5 103.5q0 88 52.5 131.5t164.5 43.5h367v-160q45 56 81.5 91t85.5 57t113 22q126 0 178.5 -77.5zM1077 450
q-51 -26 -85 -59t-70 -76q-11 -15 -22 -26v-255h472v216q0 97 -46.5 161.5t-137.5 64.5q-60 0 -111 -26zM1133 646h44v-53h-44v53z" />
    <glyph glyph-name="uniFD08" unicode="&#xfd08;" horiz-adv-x="1495" arabic-form="isolated" 
d="M40 0zM1358.5 432.5q52.5 -77.5 52.5 -181.5v-251h-550v467h-329q-177 0 -177 -141q0 -56 11.5 -81.5t49 -41t128.5 -33.5q108 -19 155 -65.5t47 -134.5q0 -56 -22 -106t-69.5 -81t-119.5 -31h-253q-76 0 -131 27.5t-83 72.5t-28 96q0 26 7 91.5t18 143.5l39 -6
q-25 -163 -25 -214q0 -53 28 -93.5t73.5 -62t96.5 -21.5l256 -2q56 0 96 27.5t60 69.5t20 85q0 49 -13.5 79.5t-51 52t-110.5 35.5q-85 14 -130 33t-66.5 55.5t-21.5 103.5q0 88 52.5 131.5t164.5 43.5h367v-160q45 56 81.5 91t85.5 57t113 22q126 0 178.5 -77.5zM1077 450
q-51 -26 -85 -59t-70 -76q-11 -15 -22 -26v-255h472v216q0 97 -46.5 161.5t-137.5 64.5q-60 0 -111 -26zM1133 646h44v-53h-44v53zM303 -320h58v-57h-58v57zM410 -320h58v-57h-58v57z" />
    <glyph glyph-name="uniFD0D" unicode="&#xfd0d;" horiz-adv-x="1182" arabic-form="isolated" 
d="M40 0zM1095 384.5q10 -62.5 10 -105.5v-279h-172q-27 0 -53.5 10t-57.5 36q-30 -46 -91 -46h-182v468q-162 -3 -271 -21v-469q0 -116 -40 -172t-123 -56q-20 0 -54 4l-21 2v33l32 -2q30 -3 50 -3q58 0 87.5 47t29.5 130v506q38 12 129 22.5t220 10.5v-466h134
q92 0 92 159v258h39v-257q0 -73 -15 -116q18 -17 46.5 -30.5t56.5 -13.5h125v271q0 50 -19 171l-3 22l27 2q14 -53 24 -115.5zM801 765h61v-61h-61v61zM749 653h58v-60h-58v60zM856 653h58v-60h-58v60z" />
    <glyph glyph-name="uniFD0E" unicode="&#xfd0e;" horiz-adv-x="1182" arabic-form="isolated" 
d="M1095 384.5q10 -62.5 10 -105.5v-279h-172q-27 0 -53.5 10t-57.5 36q-30 -46 -91 -46h-182v468q-162 -3 -271 -21v-469q0 -116 -40 -172t-123 -56q-20 0 -54 4l-21 2v33l32 -2q30 -3 50 -3q58 0 87.5 47t29.5 130v506q38 12 129 22.5t220 10.5v-466h134q92 0 92 159v258
h39v-257q0 -73 -15 -116q18 -17 46.5 -30.5t56.5 -13.5h125v271q0 50 -19 171l-3 22l27 2q14 -53 24 -115.5z" />
    <glyph glyph-name="uniFD0F" unicode="&#xfd0f;" horiz-adv-x="1182" arabic-form="isolated" 
d="M1046.5 432.5q52.5 -77.5 52.5 -181.5v-251h-550v468q-164 -3 -271 -21v-469q0 -116 -40 -172t-123 -56q-20 0 -54 4l-21 2v33l32 -2q30 -3 50 -3q58 0 87.5 47t29.5 130v506q38 12 129 22.5t220 10.5v-160q45 56 81.5 91t85.5 57t113 22q126 0 178.5 -77.5zM727 429
q-62 -47 -116 -114q-13 -16 -23 -26v-255h472v216q0 97 -46.5 161.5t-138.5 64.5q-86 0 -148 -47z" />
    <glyph glyph-name="uniFD10" unicode="&#xfd10;" horiz-adv-x="1182" arabic-form="isolated" 
d="M40 0zM1046.5 432.5q52.5 -77.5 52.5 -181.5v-251h-550v468q-164 -3 -271 -21v-469q0 -116 -40 -172t-123 -56q-20 0 -54 4l-21 2v33l32 -2q30 -3 50 -3q58 0 87.5 47t29.5 130v506q38 12 129 22.5t220 10.5v-160q45 56 81.5 91t85.5 57t113 22q126 0 178.5 -77.5z
M727 429q-62 -47 -116 -114q-13 -16 -23 -26v-255h472v216q0 97 -46.5 161.5t-138.5 64.5q-86 0 -148 -47zM801 646h44v-53h-44v53z" />
    <glyph glyph-name="uniFD17" unicode="&#xfd17;" horiz-adv-x="1535" arabic-form="final" 
d="M1535 34v-34h-290q-26 0 -52 10t-58 36q-31 -46 -91 -46h-183v467h-329q-177 0 -177 -141q0 -56 11.5 -81.5t49 -41t128.5 -33.5q108 -19 155 -65.5t47 -134.5q0 -56 -22 -106t-69.5 -81t-119.5 -31h-253q-76 0 -131 27.5t-83 72.5t-28 96q0 26 7 91.5t18 143.5l39 -6
q-25 -163 -25 -214q0 -53 28 -93.5t73.5 -62t96.5 -21.5l256 -2q56 0 96 27.5t60 69.5t20 85q0 49 -13.5 79.5t-51 52t-110.5 35.5q-85 14 -130 33t-66.5 55.5t-21.5 103.5q0 88 52.5 131.5t164.5 43.5h367v-466h135q92 0 92 159v257h39v-256q0 -74 -16 -117q18 -17 47 -30
t57 -13h125v270q0 50 -23 194l27 1q14 -55 24.5 -116.5t10.5 -104.5v-244h117z" />
    <glyph glyph-name="uniFD18" unicode="&#xfd18;" horiz-adv-x="1535" arabic-form="final" 
d="M40 0zM1535 34v-34h-290q-26 0 -52 10t-58 36q-31 -46 -91 -46h-183v467h-329q-177 0 -177 -141q0 -56 11.5 -81.5t49 -41t128.5 -33.5q108 -19 155 -65.5t47 -134.5q0 -56 -22 -106t-69.5 -81t-119.5 -31h-253q-76 0 -131 27.5t-83 72.5t-28 96q0 26 7 91.5t18 143.5
l39 -6q-25 -163 -25 -214q0 -53 28 -93.5t73.5 -62t96.5 -21.5l256 -2q56 0 96 27.5t60 69.5t20 85q0 49 -13.5 79.5t-51 52t-110.5 35.5q-85 14 -130 33t-66.5 55.5t-21.5 103.5q0 88 52.5 131.5t164.5 43.5h367v-466h135q92 0 92 159v257h39v-256q0 -74 -16 -117
q18 -17 47 -30t57 -13h125v270q0 50 -23 194l27 1q14 -55 24.5 -116.5t10.5 -104.5v-244h117zM303 -320h58v-57h-58v57zM410 -320h58v-57h-58v57z" />
    <glyph glyph-name="uniFD19" unicode="&#xfd19;" horiz-adv-x="1535" arabic-form="final" 
d="M40 0zM1535 34v-34h-290q-26 0 -52 10t-58 36q-31 -46 -91 -46h-183v467h-329q-177 0 -177 -141q0 -56 11.5 -81.5t49 -41t128.5 -33.5q108 -19 155 -65.5t47 -134.5q0 -56 -22 -106t-69.5 -81t-119.5 -31h-253q-76 0 -131 27.5t-83 72.5t-28 96q0 26 7 91.5t18 143.5
l39 -6q-25 -163 -25 -214q0 -53 28 -93.5t73.5 -62t96.5 -21.5l256 -2q56 0 96 27.5t60 69.5t20 85q0 49 -13.5 79.5t-51 52t-110.5 35.5q-85 14 -130 33t-66.5 55.5t-21.5 103.5q0 88 52.5 131.5t164.5 43.5h367v-466h135q92 0 92 159v257h39v-256q0 -74 -16 -117
q18 -17 47 -30t57 -13h125v270q0 50 -23 194l27 1q14 -55 24.5 -116.5t10.5 -104.5v-244h117zM1113 798h61v-61h-61v61zM1061 686h58v-60h-58v60zM1168 686h58v-60h-58v60z" />
    <glyph glyph-name="uniFD1A" unicode="&#xfd1a;" horiz-adv-x="1535" arabic-form="final" 
d="M40 0zM1535 34v-34h-290q-26 0 -52 10t-58 36q-31 -46 -91 -46h-183v467h-329q-177 0 -177 -141q0 -56 11.5 -81.5t49 -41t128.5 -33.5q108 -19 155 -65.5t47 -134.5q0 -56 -22 -106t-69.5 -81t-119.5 -31h-253q-76 0 -131 27.5t-83 72.5t-28 96q0 26 7 91.5t18 143.5
l39 -6q-25 -163 -25 -214q0 -53 28 -93.5t73.5 -62t96.5 -21.5l256 -2q56 0 96 27.5t60 69.5t20 85q0 49 -13.5 79.5t-51 52t-110.5 35.5q-85 14 -130 33t-66.5 55.5t-21.5 103.5q0 88 52.5 131.5t164.5 43.5h367v-466h135q92 0 92 159v257h39v-256q0 -74 -16 -117
q18 -17 47 -30t57 -13h125v270q0 50 -23 194l27 1q14 -55 24.5 -116.5t10.5 -104.5v-244h117zM1113 798h61v-61h-61v61zM1061 686h58v-60h-58v60zM1168 686h58v-60h-58v60zM303 -320h58v-57h-58v57zM410 -320h58v-57h-58v57z" />
    <glyph glyph-name="uniFD21" unicode="&#xfd21;" horiz-adv-x="1540" arabic-form="final" 
d="M1358.5 432.5q52.5 -77.5 52.5 -181.5v-251h-550v467h-329q-177 0 -177 -141q0 -56 11.5 -81.5t49 -41t128.5 -33.5q108 -19 155 -65.5t47 -134.5q0 -56 -22 -106t-69.5 -81t-119.5 -31h-253q-76 0 -131 27.5t-83 72.5t-28 96q0 26 7 91.5t18 143.5l39 -6
q-25 -163 -25 -214q0 -53 28 -93.5t73.5 -62t96.5 -21.5l256 -2q56 0 96 27.5t60 69.5t20 85q0 49 -13.5 79.5t-51 52t-110.5 35.5q-85 14 -130 33t-66.5 55.5t-21.5 103.5q0 88 52.5 131.5t164.5 43.5h367v-160q45 56 81.5 91t85.5 57t113 22q126 0 178.5 -77.5zM1372 250
q0 97 -46.5 161.5t-137.5 64.5q-60 0 -111 -26t-85 -59t-70 -76q-11 -15 -22 -26v-255h472v216zM1540 34v-34h-126l1 34h125z" />
    <glyph glyph-name="uniFD22" unicode="&#xfd22;" horiz-adv-x="1540" arabic-form="final" 
d="M40 0zM1358.5 432.5q52.5 -77.5 52.5 -181.5v-251h-550v467h-329q-177 0 -177 -141q0 -56 11.5 -81.5t49 -41t128.5 -33.5q108 -19 155 -65.5t47 -134.5q0 -56 -22 -106t-69.5 -81t-119.5 -31h-253q-76 0 -131 27.5t-83 72.5t-28 96q0 26 7 91.5t18 143.5l39 -6
q-25 -163 -25 -214q0 -53 28 -93.5t73.5 -62t96.5 -21.5l256 -2q56 0 96 27.5t60 69.5t20 85q0 49 -13.5 79.5t-51 52t-110.5 35.5q-85 14 -130 33t-66.5 55.5t-21.5 103.5q0 88 52.5 131.5t164.5 43.5h367v-160q45 56 81.5 91t85.5 57t113 22q126 0 178.5 -77.5zM1372 250
q0 97 -46.5 161.5t-137.5 64.5q-60 0 -111 -26t-85 -59t-70 -76q-11 -15 -22 -26v-255h472v216zM1540 34v-34h-126l1 34h125zM303 -320h58v-57h-58v57zM410 -320h58v-57h-58v57z" />
    <glyph glyph-name="uniFD23" unicode="&#xfd23;" horiz-adv-x="1540" arabic-form="final" 
d="M40 0zM1358.5 432.5q52.5 -77.5 52.5 -181.5v-251h-550v467h-329q-177 0 -177 -141q0 -56 11.5 -81.5t49 -41t128.5 -33.5q108 -19 155 -65.5t47 -134.5q0 -56 -22 -106t-69.5 -81t-119.5 -31h-253q-76 0 -131 27.5t-83 72.5t-28 96q0 26 7 91.5t18 143.5l39 -6
q-25 -163 -25 -214q0 -53 28 -93.5t73.5 -62t96.5 -21.5l256 -2q56 0 96 27.5t60 69.5t20 85q0 49 -13.5 79.5t-51 52t-110.5 35.5q-85 14 -130 33t-66.5 55.5t-21.5 103.5q0 88 52.5 131.5t164.5 43.5h367v-160q45 56 81.5 91t85.5 57t113 22q126 0 178.5 -77.5zM1372 250
q0 97 -46.5 161.5t-137.5 64.5q-60 0 -111 -26t-85 -59t-70 -76q-11 -15 -22 -26v-255h472v216zM1540 34v-34h-126l1 34h125zM1133 646h44v-53h-44v53z" />
    <glyph glyph-name="uniFD24" unicode="&#xfd24;" horiz-adv-x="1540" arabic-form="final" 
d="M40 0zM1358.5 432.5q52.5 -77.5 52.5 -181.5v-251h-550v467h-329q-177 0 -177 -141q0 -56 11.5 -81.5t49 -41t128.5 -33.5q108 -19 155 -65.5t47 -134.5q0 -56 -22 -106t-69.5 -81t-119.5 -31h-253q-76 0 -131 27.5t-83 72.5t-28 96q0 26 7 91.5t18 143.5l39 -6
q-25 -163 -25 -214q0 -53 28 -93.5t73.5 -62t96.5 -21.5l256 -2q56 0 96 27.5t60 69.5t20 85q0 49 -13.5 79.5t-51 52t-110.5 35.5q-85 14 -130 33t-66.5 55.5t-21.5 103.5q0 88 52.5 131.5t164.5 43.5h367v-160q45 56 81.5 91t85.5 57t113 22q126 0 178.5 -77.5zM1372 250
q0 97 -46.5 161.5t-137.5 64.5q-60 0 -111 -26t-85 -59t-70 -76q-11 -15 -22 -26v-255h472v216zM1540 34v-34h-126l1 34h125zM1133 646h44v-53h-44v53zM303 -320h58v-57h-58v57zM410 -320h58v-57h-58v57z" />
    <glyph glyph-name="uniFD29" unicode="&#xfd29;" horiz-adv-x="1177" arabic-form="final" 
d="M40 0zM1177 34v-34h-244q-27 0 -53.5 10t-57.5 36q-30 -46 -91 -46h-182v468q-162 -3 -271 -21v-469q0 -116 -40 -172t-123 -56q-20 0 -54 4l-21 2v33l32 -2q30 -3 50 -3q58 0 87.5 47t29.5 130v506q38 12 129 22.5t220 10.5v-466h134q92 0 92 159v258h39v-257
q0 -73 -15 -116q18 -17 46.5 -30.5t56.5 -13.5h125v271q0 50 -19 171l-3 22l27 2q14 -53 24 -115.5t10 -105.5v-245h72zM781 765h61v-61h-61v61zM729 653h58v-60h-58v60zM836 653h58v-60h-58v60z" />
    <glyph glyph-name="uniFD2A" unicode="&#xfd2a;" horiz-adv-x="1177" arabic-form="final" 
d="M1177 34v-34h-244q-27 0 -53.5 10t-57.5 36q-30 -46 -91 -46h-182v468q-162 -3 -271 -21v-469q0 -116 -40 -172t-123 -56q-20 0 -54 4l-21 2v33l32 -2q30 -3 50 -3q58 0 87.5 47t29.5 130v506q38 12 129 22.5t220 10.5v-466h134q92 0 92 159v258h39v-257q0 -73 -15 -116
q18 -17 46.5 -30.5t56.5 -13.5h125v271q0 50 -19 171l-3 22l27 2q14 -53 24 -115.5t10 -105.5v-245h72z" />
    <glyph glyph-name="uniFD2B" unicode="&#xfd2b;" horiz-adv-x="1193" arabic-form="final" 
d="M1193 34v-34h-644v468q-164 -3 -271 -21v-469q0 -116 -40 -172t-123 -56q-20 0 -54 4l-21 2v33l32 -2q30 -3 50 -3q58 0 87.5 47t29.5 130v506q38 12 129 22.5t220 10.5v-160q45 56 81.5 91t85.5 57t113 22q126 0 178.5 -77.5t52.5 -181.5v-217h94zM1060 34v216
q0 97 -46.5 161.5t-138.5 64.5q-86 0 -148 -47t-116 -114q-13 -16 -23 -26v-255h472z" />
    <glyph glyph-name="uniFD2C" unicode="&#xfd2c;" horiz-adv-x="1193" arabic-form="final" 
d="M40 0zM1193 34v-34h-644v468q-164 -3 -271 -21v-469q0 -116 -40 -172t-123 -56q-20 0 -54 4l-21 2v33l32 -2q30 -3 50 -3q58 0 87.5 47t29.5 130v506q38 12 129 22.5t220 10.5v-160q45 56 81.5 91t85.5 57t113 22q126 0 178.5 -77.5t52.5 -181.5v-217h94zM1060 34v216
q0 97 -46.5 161.5t-138.5 64.5q-86 0 -148 -47t-116 -114q-13 -16 -23 -26v-255h472zM801 646h44v-53h-44v53z" />
    <glyph glyph-name="uniFE82" unicode="&#x622;" horiz-adv-x="227" arabic-form="final" 
d="M0 0zM227 34v-34h-130v644h39v-610h91zM114 725q-26 11 -41.5 17t-23.5 6q-22 0 -55 -32l-9 -5l-6 24q16 19 36 33t37 14q9 0 22 -4t42 -18q51 -21 61 -21q9 0 26.5 10.5t26.5 19.5l7 6l7 -24q-16 -21 -33.5 -33.5t-30.5 -12.5q-20 0 -66 20z" />
    <glyph glyph-name="uniFE84" unicode="&#x623;" horiz-adv-x="227" arabic-form="final" 
d="M11 0zM227 34v-34h-130v644h39v-610h91zM213 707l-194 -38l-8 22l50 13q-31 27 -31 65q0 34 23.5 58.5t61.5 24.5q23 0 43 -8.5t27 -15.5l-8 -23q-6 5 -19.5 10t-29.5 5q-28 0 -46 -18t-18 -43q0 -29 24 -47l116 31z" />
    <glyph glyph-name="uniFE86" unicode="&#x624;" horiz-adv-x="528" arabic-form="final" 
d="M39 0zM528 0h-124q-3 -106 -22.5 -160t-50 -71t-78.5 -17q-34 0 -136 12v33q75 -11 135 -11q37 0 61.5 13t40 59.5t15.5 141.5h-168q-68 0 -103.5 35t-47 93t-11.5 144q0 74 14 126.5t59 86t131 33.5q29 0 80 -4.5t82 -10.5v-458v-11h123v-34zM366 34v442l-2 1
q-66 8 -106 8q-74 0 -113.5 -28.5t-53 -76t-13.5 -116.5q0 -66 9.5 -114.5t42 -82t95.5 -33.5h141zM351 624l-194 -38l-8 22l50 13q-31 27 -31 65q0 34 23.5 58.5t61.5 24.5q23 0 43 -8.5t27 -15.5l-8 -23q-6 5 -19.5 10t-29.5 5q-28 0 -46 -18t-18 -43q0 -29 24 -47l116 31
z" />
    <glyph glyph-name="uniFE88" unicode="&#x625;" horiz-adv-x="227" arabic-form="final" 
d="M39 0zM227 34v-34h-130v730h39v-696h91zM241 -202l-194 -38l-8 22l49 13q-30 26 -30 65q0 34 23.5 58.5t61.5 24.5q23 0 43 -9t26 -15l-8 -24q-6 5 -19 10.5t-29 5.5q-28 0 -46 -18t-18 -43q0 -28 23 -48l117 32z" />
    <glyph glyph-name="uniFE8A" unicode="&#x626;" horiz-adv-x="882" arabic-form="final" 
d="M40 0zM882 0h-137q1 -10 1 -30q0 -56 -22 -106t-69.5 -81t-119.5 -31h-253q-76 0 -131 27.5t-83 72.5t-28 96q0 26 7 91.5t18 143.5l39 -6q-25 -163 -25 -214q0 -53 28 -93.5t73.5 -62t96.5 -21.5l256 -2q56 0 96 27.5t60 69.5t20 85q0 12 -2 34h-37q-70 0 -101 18l14 25
q12 -6 33.5 -7.5t58.5 -1.5h207v-34zM245 292l-194 -38l-8 22l50 13q-31 27 -31 65q0 34 23.5 58.5t61.5 24.5q23 0 43 -8.5t27 -15.5l-8 -23q-6 5 -19.5 10t-29.5 5q-28 0 -46 -18t-18 -43q0 -29 24 -47l116 31z" />
    <glyph glyph-name="uniFE8B" unicode="&#x626;" horiz-adv-x="275" arabic-form="initial" 
d="M0 0zM188 500v-500h-188v34h149v466h39zM264 624l-194 -38l-8 22l50 13q-31 27 -31 65q0 34 23.5 58.5t61.5 24.5q23 0 43 -8.5t27 -15.5l-8 -23q-6 5 -19.5 10t-29.5 5q-28 0 -46 -18t-18 -43q0 -29 24 -47l116 31z" />
    <glyph glyph-name="uniFE8C" unicode="&#x626;" horiz-adv-x="336" arabic-form="medial" 
d="M0 0zM336 34v-34h-336v34h149v466h39v-466h148zM266 624l-194 -38l-8 22l50 13q-31 27 -31 65q0 34 23.5 58.5t61.5 24.5q23 0 43 -8.5t27 -15.5l-8 -23q-6 5 -19.5 10t-29.5 5q-28 0 -46 -18t-18 -43q0 -29 24 -47l116 31z" />
    <glyph glyph-name="uniFE8E" unicode="&#x627;" horiz-adv-x="227" arabic-form="final" 
d="M227 34v-34h-130v730h39v-696h91z" />
    <glyph glyph-name="uniFE90" unicode="&#x628;" horiz-adv-x="771" arabic-form="final" 
d="M54 0zM771 34v-34h-476q-104 0 -156.5 17.5t-68.5 47.5t-16 78q0 39 9 108.5t22 136.5l28 -1l-10 -83q-15 -112 -15 -152q0 -52 20.5 -77t64.5 -33t131 -8h284v466h39v-466h144zM341 -80h44v-53h-44v53z" />
    <glyph glyph-name="uniFE91" unicode="&#x628;" horiz-adv-x="275" arabic-form="initial" 
d="M0 0zM188 500v-500h-188v34h149v466h39zM144 -80h44v-53h-44v53z" />
    <glyph glyph-name="uniFE92" unicode="&#x628;" horiz-adv-x="336" arabic-form="medial" 
d="M0 0zM336 34v-34h-336v34h149v466h39v-466h148zM146 -80h44v-53h-44v53z" />
    <glyph glyph-name="uniFE94" unicode="&#x629;" horiz-adv-x="574" arabic-form="final" 
d="M40 0zM574 34v-34h-319q-84 0 -131 27.5t-65.5 81t-18.5 140.5q0 133 44.5 197t150.5 64q38 0 107.5 -3.5t111.5 -6.5v-466h120zM96.5 127q17.5 -47 59.5 -70t116 -23h143v434q-124 7 -157 7q-97 0 -138 -53.5t-41 -169.5q0 -78 17.5 -125zM194 650h58v-57h-58v57z
M301 650h58v-57h-58v57z" />
    <glyph glyph-name="uniFE96" unicode="&#x62a;" horiz-adv-x="771" arabic-form="final" 
d="M54 0zM771 34v-34h-476q-104 0 -156.5 17.5t-68.5 47.5t-16 78q0 39 9 108.5t22 136.5l28 -1l-10 -83q-15 -112 -15 -152q0 -52 20.5 -77t64.5 -33t131 -8h284v466h39v-466h144zM282 557h58v-57h-58v57zM389 557h58v-57h-58v57z" />
    <glyph glyph-name="uniFE97" unicode="&#x62a;" horiz-adv-x="275" arabic-form="initial" 
d="M0 0zM188 500v-500h-188v34h149v466h39zM85 650h58v-57h-58v57zM192 650h58v-57h-58v57z" />
    <glyph glyph-name="uniFE98" unicode="&#x62a;" horiz-adv-x="336" arabic-form="medial" 
d="M0 0zM336 34v-34h-336v34h149v466h39v-466h148zM87 650h58v-57h-58v57zM194 650h58v-57h-58v57z" />
    <glyph glyph-name="uniFE9A" unicode="&#x62b;" horiz-adv-x="771" arabic-form="final" 
d="M54 0zM771 34v-34h-476q-104 0 -156.5 17.5t-68.5 47.5t-16 78q0 39 9 108.5t22 136.5l28 -1l-10 -83q-15 -112 -15 -152q0 -52 20.5 -77t64.5 -33t131 -8h284v466h39v-466h144zM332 672h61v-61h-61v61zM280 560h58v-60h-58v60zM387 560h58v-60h-58v60z" />
    <glyph glyph-name="uniFE9B" unicode="&#x62b;" horiz-adv-x="275" arabic-form="initial" 
d="M0 0zM188 500v-500h-188v34h149v466h39zM135 765h61v-61h-61v61zM83 653h58v-60h-58v60zM190 653h58v-60h-58v60z" />
    <glyph glyph-name="uniFE9C" unicode="&#x62b;" horiz-adv-x="336" arabic-form="medial" 
d="M0 0zM336 34v-34h-336v34h149v466h39v-466h148zM137 765h61v-61h-61v61zM85 653h58v-60h-58v60zM192 653h58v-60h-58v60z" />
    <glyph glyph-name="uniFE9E" unicode="&#x62c;" horiz-adv-x="587" arabic-form="final" 
d="M40 0zM121.5 17q-39.5 -36 -39.5 -119q0 -181 197 -181q69 0 183 24l5 -33q-122 -24 -197 -24q-114 0 -172 54t-58 160q0 99 50 145.5t150 46.5q64 0 114 -16t73 -36v322q0 54 -32 82.5t-89 28.5q-30 0 -95 -9t-105 -17l-2 35l49 9q43 8 88 14.5t72 6.5q58 0 106 -36.5
t47 -138.5v-301h121v-34h-160q-29 20 -79 36.5t-109 16.5q-78 0 -117.5 -36zM287 -122h58v-60h-58v60z" />
    <glyph glyph-name="uniFE9F" unicode="&#x62c;" horiz-adv-x="516" arabic-form="initial" 
d="M0 0zM408.5 473.5q48.5 -36.5 47.5 -138.5v-335h-456v34h417v326q0 54 -32.5 82.5t-89.5 28.5q-30 0 -95.5 -9t-103.5 -17l-3 35q9 2 21.5 4t27.5 5q118 21 161 21q57 0 105.5 -36.5zM241 -80h44v-53h-44v53z" />
    <glyph glyph-name="uniFEA0" unicode="&#x62c;" horiz-adv-x="577" arabic-form="medial" 
d="M0 0zM577 34v-34h-577v34h417v326q0 54 -32.5 82.5t-89.5 28.5q-30 0 -95.5 -9t-103.5 -17l-3 35q9 2 21.5 4t27.5 5q118 21 161 21q57 0 105.5 -36.5t47.5 -138.5v-301h121zM265 -80h44v-53h-44v53z" />
    <glyph glyph-name="uniFEA2" unicode="&#x62d;" horiz-adv-x="587" arabic-form="final" 
d="M121.5 17q-39.5 -36 -39.5 -119q0 -181 197 -181q69 0 183 24l5 -33q-122 -24 -197 -24q-114 0 -172 54t-58 160q0 99 50 145.5t150 46.5q64 0 114 -16t73 -36v322q0 54 -32 82.5t-89 28.5q-30 0 -95 -9t-105 -17l-2 35l49 9q43 8 88 14.5t72 6.5q58 0 106 -36.5
t47 -138.5v-301h121v-34h-160q-29 20 -79 36.5t-109 16.5q-78 0 -117.5 -36z" />
    <glyph glyph-name="uniFEA3" unicode="&#x62d;" horiz-adv-x="516" arabic-form="initial" 
d="M408.5 473.5q48.5 -36.5 47.5 -138.5v-335h-456v34h417v326q0 54 -32.5 82.5t-89.5 28.5q-30 0 -95.5 -9t-103.5 -17l-3 35q9 2 21.5 4t27.5 5q118 21 161 21q57 0 105.5 -36.5z" />
    <glyph glyph-name="uniFEA4" unicode="&#x62d;" horiz-adv-x="577" arabic-form="medial" 
d="M577 34v-34h-577v34h417v326q0 54 -32.5 82.5t-89.5 28.5q-30 0 -95.5 -9t-103.5 -17l-3 35q9 2 21.5 4t27.5 5q118 21 161 21q57 0 105.5 -36.5t47.5 -138.5v-301h121z" />
    <glyph glyph-name="uniFEA6" unicode="&#x62e;" horiz-adv-x="587" arabic-form="final" 
d="M40 0zM121.5 17q-39.5 -36 -39.5 -119q0 -181 197 -181q69 0 183 24l5 -33q-122 -24 -197 -24q-114 0 -172 54t-58 160q0 99 50 145.5t150 46.5q64 0 114 -16t73 -36v322q0 54 -32 82.5t-89 28.5q-30 0 -95 -9t-105 -17l-2 35l49 9q43 8 88 14.5t72 6.5q58 0 106 -36.5
t47 -138.5v-301h121v-34h-160q-29 20 -79 36.5t-109 16.5q-78 0 -117.5 -36zM229 646h44v-53h-44v53z" />
    <glyph glyph-name="uniFEA7" unicode="&#x62e;" horiz-adv-x="516" arabic-form="initial" 
d="M0 0zM408.5 473.5q48.5 -36.5 47.5 -138.5v-335h-456v34h417v326q0 54 -32.5 82.5t-89.5 28.5q-30 0 -95.5 -9t-103.5 -17l-3 35q9 2 21.5 4t27.5 5q118 21 161 21q57 0 105.5 -36.5zM241 646h44v-53h-44v53z" />
    <glyph glyph-name="uniFEA8" unicode="&#x62e;" horiz-adv-x="577" arabic-form="medial" 
d="M0 0zM577 34v-34h-577v34h417v326q0 54 -32.5 82.5t-89.5 28.5q-30 0 -95.5 -9t-103.5 -17l-3 35q9 2 21.5 4t27.5 5q118 21 161 21q57 0 105.5 -36.5t47.5 -138.5v-301h121zM265 646h44v-53h-44v53z" />
    <glyph glyph-name="uniFEAA" unicode="&#x62f;" horiz-adv-x="494" arabic-form="final" 
d="M494 34v-34h-454v34h328v169q0 160 -63 222t-147 62h-67l-2 25q-3 2 20.5 5t49.5 3q102 0 175 -70.5t73 -251.5v-164h87z" />
    <glyph glyph-name="uniFEAC" unicode="&#x630;" horiz-adv-x="494" arabic-form="final" 
d="M40 0zM494 34v-34h-454v34h328v169q0 160 -63 222t-147 62h-67l-2 25q-3 2 20.5 5t49.5 3q102 0 175 -70.5t73 -251.5v-164h87zM85 673h44v-53h-44v53z" />
    <glyph glyph-name="uniFEAE" unicode="&#x631;" horiz-adv-x="377" arabic-form="final" 
d="M377 0h-99v-22q0 -116 -40 -172t-123 -56q-20 0 -54 4l-21 2v33l32 -2q30 -3 50 -3q58 0 87.5 47t29.5 130v537h39v-464h99v-34z" />
    <glyph glyph-name="uniFEB0" unicode="&#x632;" horiz-adv-x="377" arabic-form="final" 
d="M40 0zM377 0h-99v-22q0 -116 -40 -172t-123 -56q-20 0 -54 4l-21 2v33l32 -2q30 -3 50 -3q58 0 87.5 47t29.5 130v537h39v-464h99v-34zM234 646h44v-53h-44v53z" />
    <glyph glyph-name="uniFEB2" unicode="&#x633;" horiz-adv-x="1155" arabic-form="final" 
d="M1155 34v-34h-293q-26 0 -52 10t-58 36q-31 -46 -91 -46h-144v-40q0 -78 -37.5 -124.5t-89.5 -65t-100 -18.5q-52 0 -109.5 19t-99 63.5t-41.5 116.5q0 66 37 318l39 -2q-14 -87 -24 -177t-10 -126q0 -58 30.5 -98.5t76.5 -60.5t92 -20q47 0 93 20.5t75 59t29 88.5v497
h39v-416h134q93 0 93 159v257h39v-256q0 -74 -16 -117q18 -17 47 -30t57 -13h125v270q0 50 -23 194l27 1q14 -55 24.5 -116.5t10.5 -104.5v-244h120z" />
    <glyph glyph-name="uniFEB3" unicode="&#x633;" horiz-adv-x="801" arabic-form="initial" 
d="M714.5 382.5q10.5 -61.5 10.5 -104.5v-278h-173q-26 0 -52 10t-58 36q-31 -46 -91 -46h-351v34h168v416h39v-416h134q93 0 93 159v257h39v-256q0 -74 -16 -117q18 -17 47 -30t57 -13h125v270q0 50 -23 194l27 1q14 -55 24.5 -116.5z" />
    <glyph glyph-name="uniFEB4" unicode="&#x633;" horiz-adv-x="825" arabic-form="medial" 
d="M825 34v-34h-273q-26 0 -52 10t-58 36q-31 -46 -91 -46h-351v34h168v416h39v-416h134q93 0 93 159v257h39v-256q0 -74 -16 -117q18 -17 47 -30t57 -13h125v270q0 50 -23 194l27 1q14 -55 24.5 -116.5t10.5 -104.5v-244h100z" />
    <glyph glyph-name="uniFEB6" unicode="&#x634;" horiz-adv-x="1155" arabic-form="final" 
d="M40 0zM1155 34v-34h-293q-26 0 -52 10t-58 36q-31 -46 -91 -46h-144v-40q0 -78 -37.5 -124.5t-89.5 -65t-100 -18.5q-52 0 -109.5 19t-99 63.5t-41.5 116.5q0 66 37 318l39 -2q-14 -87 -24 -177t-10 -126q0 -58 30.5 -98.5t76.5 -60.5t92 -20q47 0 93 20.5t75 59t29 88.5
v497h39v-416h134q93 0 93 159v257h39v-256q0 -74 -16 -117q18 -17 47 -30t57 -13h125v270q0 50 -23 194l27 1q14 -55 24.5 -116.5t10.5 -104.5v-244h120zM730 765h61v-61h-61v61zM678 653h58v-60h-58v60zM785 653h58v-60h-58v60z" />
    <glyph glyph-name="uniFEB7" unicode="&#x634;" horiz-adv-x="801" arabic-form="initial" 
d="M0 0zM714.5 382.5q10.5 -61.5 10.5 -104.5v-278h-173q-26 0 -52 10t-58 36q-31 -46 -91 -46h-351v34h168v416h39v-416h134q93 0 93 159v257h39v-256q0 -74 -16 -117q18 -17 47 -30t57 -13h125v270q0 50 -23 194l27 1q14 -55 24.5 -116.5zM420 765h61v-61h-61v61zM368 653
h58v-60h-58v60zM475 653h58v-60h-58v60z" />
    <glyph glyph-name="uniFEB8" unicode="&#x634;" horiz-adv-x="825" arabic-form="medial" 
d="M0 0zM825 34v-34h-273q-26 0 -52 10t-58 36q-31 -46 -91 -46h-351v34h168v416h39v-416h134q93 0 93 159v257h39v-256q0 -74 -16 -117q18 -17 47 -30t57 -13h125v270q0 50 -23 194l27 1q14 -55 24.5 -116.5t10.5 -104.5v-244h100zM400 765h61v-61h-61v61zM348 653h58v-60
h-58v60zM455 653h58v-60h-58v60z" />
    <glyph glyph-name="uniFEBA" unicode="&#x635;" horiz-adv-x="1155" arabic-form="final" 
d="M1155 34v-34h-638v-40q0 -78 -37.5 -124.5t-89.5 -65t-101 -18.5q-52 0 -109.5 19t-98.5 64.5t-41 118.5q0 61 37 315l38 -2q-33 -233 -33 -301q0 -59 30.5 -99.5t77 -60.5t91.5 -20q47 0 92.5 20.5t75 58.5t29.5 88v547h39v-160q45 56 81.5 91t85.5 57t113 22
q126 0 178.5 -77.5t52.5 -181.5v-217h127zM656 429q-62 -47 -116 -114q-14 -17 -23 -26v-255h472v216q0 97 -46.5 161.5t-138.5 64.5q-86 0 -148 -47z" />
    <glyph glyph-name="uniFEBB" unicode="&#x635;" horiz-adv-x="782" arabic-form="initial" 
d="M652.5 432.5q52.5 -77.5 52.5 -181.5v-251h-705v34h155v466h39v-160q45 56 81.5 91t85.5 57t113 22q126 0 178.5 -77.5zM666 34v216q0 97 -46.5 161.5t-137.5 64.5q-60 0 -111 -26t-85 -59t-70 -76q-11 -15 -22 -26v-255h472z" />
    <glyph glyph-name="uniFEBC" unicode="&#x635;" horiz-adv-x="806" arabic-form="medial" 
d="M806 34v-34h-806v34h155v466h39v-160q45 56 81.5 91t85.5 57t113 22q126 0 178.5 -77.5t52.5 -181.5v-217h101zM666 34v216q0 97 -46.5 161.5t-137.5 64.5q-60 0 -111 -26t-85 -59t-70 -76q-11 -15 -22 -26v-255h472z" />
    <glyph glyph-name="uniFEBE" unicode="&#x636;" horiz-adv-x="1155" arabic-form="final" 
d="M40 0zM1155 34v-34h-638v-40q0 -78 -37.5 -124.5t-89.5 -65t-101 -18.5q-52 0 -109.5 19t-98.5 64.5t-41 118.5q0 61 37 315l38 -2q-33 -233 -33 -301q0 -59 30.5 -99.5t77 -60.5t91.5 -20q47 0 92.5 20.5t75 58.5t29.5 88v547h39v-160q45 56 81.5 91t85.5 57t113 22
q126 0 178.5 -77.5t52.5 -181.5v-217h127zM656 429q-62 -47 -116 -114q-14 -17 -23 -26v-255h472v216q0 97 -46.5 161.5t-138.5 64.5q-86 0 -148 -47zM729 646h44v-53h-44v53z" />
    <glyph glyph-name="uniFEBF" unicode="&#x636;" horiz-adv-x="782" arabic-form="initial" 
d="M0 0zM652.5 432.5q52.5 -77.5 52.5 -181.5v-251h-705v34h155v466h39v-160q45 56 81.5 91t85.5 57t113 22q126 0 178.5 -77.5zM666 34v216q0 97 -46.5 161.5t-137.5 64.5q-60 0 -111 -26t-85 -59t-70 -76q-11 -15 -22 -26v-255h472zM419 646h44v-53h-44v53z" />
    <glyph glyph-name="uniFEC0" unicode="&#x636;" horiz-adv-x="806" arabic-form="medial" 
d="M0 0zM806 34v-34h-806v34h155v466h39v-160q45 56 81.5 91t85.5 57t113 22q126 0 178.5 -77.5t52.5 -181.5v-217h101zM666 34v216q0 97 -46.5 161.5t-137.5 64.5q-60 0 -111 -26t-85 -59t-70 -76q-11 -15 -22 -26v-255h472zM399 646h44v-53h-44v53z" />
    <glyph glyph-name="uniFEC2" unicode="&#x637;" horiz-adv-x="758" arabic-form="final" 
d="M758 34v-34h-725v34h54v696h39v-390q45 56 81.5 91t85.5 57t113 22q126 0 178.5 -77.5t52.5 -181.5v-217h121zM303 450q-51 -26 -85 -59t-70 -76q-11 -15 -22 -26v-255h472v216q0 97 -46.5 161.5t-137.5 64.5q-60 0 -111 -26z" />
    <glyph glyph-name="uniFEC3" unicode="&#x637;" horiz-adv-x="717" arabic-form="initial" 
d="M585.5 459.5q71.5 -50.5 71.5 -208.5v-251h-657v34h101v696h39v-491q56 115 131.5 193t168.5 78q74 0 145.5 -50.5zM292.5 411.5q-68.5 -64.5 -110.5 -156.5t-42 -166v-55h478v236q0 82 -31 127.5t-72 62t-80 16.5q-74 0 -142.5 -64.5z" />
    <glyph glyph-name="uniFEC4" unicode="&#x637;" horiz-adv-x="758" arabic-form="medial" 
d="M758 34v-34h-758v34h101v696h39v-491q56 115 131.5 193t168.5 78q74 0 145.5 -50.5t71.5 -208.5v-217h101zM618 34v236q0 82 -31 127.5t-72 62t-80 16.5q-74 0 -142.5 -64.5t-110.5 -156.5t-42 -166v-55h478z" />
    <glyph glyph-name="uniFEC6" unicode="&#x638;" horiz-adv-x="758" arabic-form="final" 
d="M33 0zM758 34v-34h-725v34h54v696h39v-390q45 56 81.5 91t85.5 57t113 22q126 0 178.5 -77.5t52.5 -181.5v-217h121zM303 450q-51 -26 -85 -59t-70 -76q-11 -15 -22 -26v-255h472v216q0 97 -46.5 161.5t-137.5 64.5q-60 0 -111 -26zM358 646h44v-53h-44v53z" />
    <glyph glyph-name="uniFEC7" unicode="&#x638;" horiz-adv-x="717" arabic-form="initial" 
d="M0 0zM585.5 459.5q71.5 -50.5 71.5 -208.5v-251h-657v34h101v696h39v-491q56 115 131.5 193t168.5 78q74 0 145.5 -50.5zM292.5 411.5q-68.5 -64.5 -110.5 -156.5t-42 -166v-55h478v236q0 82 -31 127.5t-72 62t-80 16.5q-74 0 -142.5 -64.5zM350 646h44v-53h-44v53z" />
    <glyph glyph-name="uniFEC8" unicode="&#x638;" horiz-adv-x="758" arabic-form="medial" 
d="M0 0zM758 34v-34h-758v34h101v696h39v-491q56 115 131.5 193t168.5 78q74 0 145.5 -50.5t71.5 -208.5v-217h101zM618 34v236q0 82 -31 127.5t-72 62t-80 16.5q-74 0 -142.5 -64.5t-110.5 -156.5t-42 -166v-55h478zM358 646h44v-53h-44v53z" />
    <glyph glyph-name="uniFECA" unicode="&#x639;" horiz-adv-x="555" arabic-form="final" 
d="M157 12.5q-35 -36.5 -35 -113.5q0 -182 200 -182q71 0 185 24l5 -33l-31 -6q-94 -18 -166 -18q-116 0 -173 54t-57 164q0 82 32.5 123t98.5 58q-58 43 -96 101t-56 112t-20 93l-3 60q10 5 45 20v1v-1q56 24 97.5 32t86.5 8t87 -8t100 -32v1l1 -2q10 -3 43 -19l-3 -60
q-3 -41 -23.5 -99t-62 -118t-103.5 -102q75 -36 158 -36h88v-34h-89q-52 0 -107.5 14.5t-96.5 39.5q-70 -5 -105 -41.5zM137.5 235q53.5 -85 133.5 -141q76 51 131.5 138.5t56.5 197.5q-56 22 -101.5 33.5t-86.5 11.5t-82 -11t-105 -33q0 -111 53.5 -196z" />
    <glyph glyph-name="uniFECB" unicode="&#x639;" horiz-adv-x="544" arabic-form="initial" 
d="M514 34v-34h-514v34h217q-36 36 -61.5 102.5t-25.5 145.5q0 97 38.5 162t153.5 65q40 0 82.5 -10t79.5 -31l-1 -29q-3 4 -29.5 13t-60.5 16t-64 7q-85 0 -122.5 -56t-37.5 -142q0 -77 29 -142t71 -101h245z" />
    <glyph glyph-name="uniFECC" unicode="&#x639;" horiz-adv-x="578" arabic-form="medial" 
d="M578 34v-34h-88q-50 0 -102 12.5t-94 35.5q-42 -22 -92.5 -35t-101.5 -13h-100v34h97q80 0 158 33q-61 43 -102.5 103.5t-62.5 119t-24 99.5l-3 60q10 5 45 20v1v-1q56 24 97.5 32t87.5 8q53 0 103.5 -12t126.5 -48l-2 -60q-3 -41 -23.5 -99t-62 -118t-103.5 -102
q73 -36 157 -36h89zM159 235q54 -85 134 -140q76 49 132 137.5t55 197.5q-56 22 -100 33.5t-86 11.5t-84.5 -11t-103.5 -33q-1 -111 53 -196z" />
    <glyph glyph-name="uniFECE" unicode="&#x63a;" horiz-adv-x="555" arabic-form="final" 
d="M41 0zM157 12.5q-35 -36.5 -35 -113.5q0 -182 200 -182q71 0 185 24l5 -33l-31 -6q-94 -18 -166 -18q-116 0 -173 54t-57 164q0 82 32.5 123t98.5 58q-58 43 -96 101t-56 112t-20 93l-3 60q10 5 45 20v1v-1q56 24 97.5 32t86.5 8t87 -8t100 -32v1l1 -2q10 -3 43 -19
l-3 -60q-3 -41 -23.5 -99t-62 -118t-103.5 -102q75 -36 158 -36h88v-34h-89q-52 0 -107.5 14.5t-96.5 39.5q-70 -5 -105 -41.5zM137.5 235q53.5 -85 133.5 -141q76 51 131.5 138.5t56.5 197.5q-56 22 -101.5 33.5t-86.5 11.5t-82 -11t-105 -33q0 -111 53.5 -196zM246 646h44
v-53h-44v53z" />
    <glyph glyph-name="uniFECF" unicode="&#x63a;" horiz-adv-x="544" arabic-form="initial" 
d="M0 0zM514 34v-34h-514v34h217q-36 36 -61.5 102.5t-25.5 145.5q0 97 38.5 162t153.5 65q40 0 82.5 -10t79.5 -31l-1 -29q-3 4 -29.5 13t-60.5 16t-64 7q-85 0 -122.5 -56t-37.5 -142q0 -77 29 -142t71 -101h245zM278 646h44v-53h-44v53z" />
    <glyph glyph-name="uniFED0" unicode="&#x63a;" horiz-adv-x="578" arabic-form="medial" 
d="M0 0zM578 34v-34h-88q-50 0 -102 12.5t-94 35.5q-42 -22 -92.5 -35t-101.5 -13h-100v34h97q80 0 158 33q-61 43 -102.5 103.5t-62.5 119t-24 99.5l-3 60q10 5 45 20v1v-1q56 24 97.5 32t87.5 8q53 0 103.5 -12t126.5 -48l-2 -60q-3 -41 -23.5 -99t-62 -118t-103.5 -102
q73 -36 157 -36h89zM159 235q54 -85 134 -140q76 49 132 137.5t55 197.5q-56 22 -100 33.5t-86 11.5t-84.5 -11t-103.5 -33q-1 -111 53 -196zM268 646h44v-53h-44v53z" />
    <glyph glyph-name="uniFED2" unicode="&#x641;" horiz-adv-x="945" arabic-form="final" 
d="M40 0zM945 34v-34h-664q-104 0 -156.5 17.5t-68.5 47t-16 77.5q0 41 10 112t23 134l28 -1l-4 -26q-23 -147 -23 -209q0 -52 20.5 -77t64.5 -33t131 -8h247q-22 36 -28.5 78t-6.5 111q0 113 17 170.5t62.5 81.5t136.5 24q71 0 132 -7l12 -1v-457h83zM551 101
q13 -49 31 -67h241v428q-72 6 -114 6q-70 0 -107 -24t-50.5 -72t-13.5 -129q0 -93 13 -142zM683 646h44v-53h-44v53z" />
    <glyph glyph-name="uniFED3" unicode="&#x641;" horiz-adv-x="559" arabic-form="initial" 
d="M0 0zM492 491v-491h-492v34h167q-22 36 -28.5 78t-6.5 111q0 113 17 170.5t62.5 81.5t136.5 24q71 0 132 -7zM453 462q-72 6 -114 6q-70 0 -107 -24t-50.5 -72t-13.5 -129q0 -93 13 -142t31 -67h241v428zM315 646h44v-53h-44v53z" />
    <glyph glyph-name="uniFED4" unicode="&#x641;" horiz-adv-x="574" arabic-form="medial" 
d="M0 0zM574 34v-34h-574v34h167q-22 36 -28.5 78t-6.5 111q0 113 17 170.5t62.5 81.5t136.5 24q71 0 132 -7l12 -1v-457h82zM181 101q13 -49 31 -67h241v428q-72 6 -114 6q-70 0 -107 -24t-50.5 -72t-13.5 -129q0 -93 13 -142zM267 646h44v-53h-44v53z" />
    <glyph glyph-name="uniFED6" unicode="&#x642;" horiz-adv-x="855" arabic-form="final" 
d="M40 0zM855 0h-106v-36q0 -94 -58.5 -144.5t-153.5 -50.5h-281q-96 0 -156 50.5t-60 144.5q0 73 33 263l38 -6q-16 -99 -22.5 -151.5t-6.5 -86.5q0 -87 45.5 -133.5t133.5 -46.5h269q90 0 135 46.5t45 134.5v16h-159q-63 0 -98.5 22t-50.5 72t-15 138q0 87 16 145.5t59 91
t120 32.5q22 0 72.5 -3t82.5 -6l12 -1v-457h106v-34zM710 34v428l-56 4q-47 4 -60 4q-95 0 -131.5 -57t-36.5 -176q0 -76 14 -120t45.5 -63.5t86.5 -19.5h138zM509 650h58v-57h-58v57zM616 650h58v-57h-58v57z" />
    <glyph glyph-name="uniFED7" unicode="&#x642;" horiz-adv-x="559" arabic-form="initial" 
d="M0 0zM492 491v-491h-492v34h167q-22 36 -28.5 78t-6.5 111q0 113 17 170.5t62.5 81.5t136.5 24q71 0 132 -7zM453 462q-72 6 -114 6q-70 0 -107 -24t-50.5 -72t-13.5 -129q0 -93 13 -142t31 -67h241v428zM256 650h58v-57h-58v57zM363 650h58v-57h-58v57z" />
    <glyph glyph-name="uniFED8" unicode="&#x642;" horiz-adv-x="574" arabic-form="medial" 
d="M0 0zM574 34v-34h-574v34h167q-22 36 -28.5 78t-6.5 111q0 113 17 170.5t62.5 81.5t136.5 24q71 0 132 -7l12 -1v-457h82zM181 101q13 -49 31 -67h241v428q-72 6 -114 6q-70 0 -107 -24t-50.5 -72t-13.5 -129q0 -93 13 -142zM208 650h58v-57h-58v57zM315 650h58v-57h-58
v57z" />
    <glyph glyph-name="uniFEDA" unicode="&#x643;" horiz-adv-x="785" arabic-form="final" 
d="M57 0zM785 34v-34h-487q-104 0 -156.5 17.5t-68.5 47.5t-16 78q0 35 8 95.5t19 121.5l29 -1l-4 -29q-19 -131 -19 -178q0 -52 20.5 -77t65 -33t131.5 -8h290v696h39v-696h149zM430 401l-194 -38l-8 22l50 13q-31 27 -31 65q0 34 23.5 58.5t61.5 24.5q23 0 43 -8.5
t27 -15.5l-8 -23q-6 5 -19.5 10t-29.5 5q-28 0 -46 -18t-18 -43q0 -29 24 -47l116 31z" />
    <glyph glyph-name="uniFEDB" unicode="&#x643;" horiz-adv-x="551" arabic-form="initial" 
d="M452 349q39 -48 39 -157v-192h-491v34h452v159q0 68 -21 118.5t-86 51.5h-273l-39 53l47 92q17 33 56 89.5t79 107.5l25 -14q-61 -92 -81 -126t-38 -68l-52 -100h272q72 0 111 -48z" />
    <glyph glyph-name="uniFEDC" unicode="&#x643;" horiz-adv-x="640" arabic-form="medial" 
d="M640 34v-34h-640v34h452v159q0 68 -21 118.5t-86 51.5h-273l-39 53l47 92q17 33 56 89.5t79 107.5l25 -14q-61 -92 -81 -126t-38 -68l-52 -100h272q72 0 111 -48t39 -157v-158h149z" />
    <glyph glyph-name="uniFEDE" unicode="&#x644;" horiz-adv-x="628" arabic-form="final" 
d="M628 0h-114v-57q0 -69 -34.5 -111.5t-87.5 -61t-111 -18.5q-66 0 -121.5 23.5t-88.5 68t-33 104.5q0 39 13 134t30 190l39 -2q-18 -113 -29 -202t-11 -121q0 -49 27 -85.5t73 -56t101 -19.5q79 0 136.5 39.5t57.5 122.5v782h39v-696h114v-34z" />
    <glyph glyph-name="uniFEDF" unicode="&#x644;" horiz-adv-x="259" arabic-form="initial" 
d="M162 730v-730h-162v34h123v696h39z" />
    <glyph glyph-name="uniFEE0" unicode="&#x644;" horiz-adv-x="304" arabic-form="medial" 
d="M304 34v-34h-304v34h123v696h39v-696h142z" />
    <glyph glyph-name="uniFEE2" unicode="&#x645;" horiz-adv-x="621" arabic-form="final" 
d="M621 34v-34h-17q-40 0 -99 33v-33h-321q-110 0 -110 -136q0 -67 27 -190h-32q-13 65 -20 108.5t-7 86.5q0 135 83 160q-14 88 -14 212q0 77 6 144t14 103q22 9 63.5 16t82.5 7q104 0 166 -57.5t62 -203.5v-184q4 -2 20 -11.5t36.5 -15t42.5 -5.5h17zM466 34v216
q0 124 -53 175t-148 51q-48 0 -97 -11q-15 -105 -15 -224q0 -60 4.5 -117t9.5 -90h5h294z" />
    <glyph glyph-name="uniFEE3" unicode="&#x645;" horiz-adv-x="617" arabic-form="initial" 
d="M489 453.5q62 -57.5 62 -203.5v-250h-551v34h170q-13 98 -13 207q0 75 6 142t13 105q24 9 65 16t82 7q104 0 166 -57.5zM203.5 124q4.5 -57 9.5 -90h299v216q0 124 -53.5 175t-148.5 51q-47 0 -96 -11q-15 -103 -15 -224q0 -60 4.5 -117z" />
    <glyph glyph-name="uniFEE4" unicode="&#x645;" horiz-adv-x="665" arabic-form="medial" 
d="M665 34v-34h-17q-39 0 -97 32v-32h-551v34h170q-13 98 -13 207q0 75 6 142t13 105q24 9 65 16t82 7q104 0 166 -57.5t62 -203.5v-185q25 -15 45.5 -23t51.5 -8h17zM203.5 124q4.5 -57 9.5 -90h299v216q0 124 -53.5 175t-148.5 51q-47 0 -96 -11q-15 -103 -15 -224
q0 -60 4.5 -117z" />
    <glyph glyph-name="uniFEE6" unicode="&#x646;" horiz-adv-x="638" arabic-form="final" 
d="M40 0zM638 0h-122v-57q0 -69 -34.5 -111.5t-87.5 -61t-111 -18.5q-66 0 -121.5 23.5t-88.5 68t-33 104.5q0 39 13 134t30 190l39 -2q-18 -113 -29 -202t-11 -121q0 -49 27 -85.5t73 -56t101 -19.5q79 0 136.5 39.5t57.5 122.5v552h39v-466h122v-34zM264 553h44v-53h-44
v53z" />
    <glyph glyph-name="uniFEE7" unicode="&#x646;" horiz-adv-x="275" arabic-form="initial" 
d="M0 0zM188 500v-500h-188v34h149v466h39zM144 646h44v-53h-44v53z" />
    <glyph glyph-name="uniFEE8" unicode="&#x646;" horiz-adv-x="336" arabic-form="medial" 
d="M0 0zM336 34v-34h-336v34h149v466h39v-466h148zM146 646h44v-53h-44v53z" />
    <glyph glyph-name="uniFEEA" unicode="&#x647;" horiz-adv-x="574" arabic-form="final" 
d="M574 34v-34h-319q-84 0 -131 27.5t-65.5 81t-18.5 140.5q0 133 44.5 197t150.5 64q38 0 107.5 -3.5t111.5 -6.5v-466h120zM96.5 127q17.5 -47 59.5 -70t116 -23h143v434q-124 7 -157 7q-97 0 -138 -53.5t-41 -169.5q0 -78 17.5 -125z" />
    <glyph glyph-name="uniFEEB" unicode="&#x647;" horiz-adv-x="735" arabic-form="initial" 
d="M577.5 457q91.5 -63 91.5 -253v-204h-669v34h122v120q0 46 23 83.5t60.5 58.5t79.5 21q41 0 78 -19.5t60.5 -56.5t23.5 -87v-120h183v166q0 156 -75.5 220.5t-203.5 64.5q-46 0 -92 -6t-106 -16l-1 27q-6 0 28.5 8t81.5 15t93 7q131 0 222.5 -63zM196 250
q-36 -34 -36 -82v-134h248v133q0 49 -35 83t-88 34t-89 -34z" />
    <glyph glyph-name="uniFEEC" unicode="&#x647;" horiz-adv-x="774" arabic-form="medial" 
d="M774 34v-34h-774v34h122v120q0 46 23 83.5t60.5 58.5t79.5 21q41 0 78 -19.5t60.5 -56.5t23.5 -87v-120h183v166q0 156 -75.5 220.5t-203.5 64.5q-46 0 -92 -6t-106 -16l-1 27q-6 0 28.5 8t81.5 15t93 7q131 0 222.5 -63t91.5 -253v-170h105zM196 250q-36 -34 -36 -82
v-134h248v133q0 49 -35 83t-88 34t-89 -34z" />
    <glyph glyph-name="uniFEEE" unicode="&#x648;" horiz-adv-x="528" arabic-form="final" 
d="M528 0h-124q-3 -106 -22.5 -160t-50 -71t-78.5 -17q-34 0 -136 12v33q75 -11 135 -11q37 0 61.5 13t40 59.5t15.5 141.5h-168q-68 0 -103.5 35t-47 93t-11.5 144q0 74 14 126.5t59 86t131 33.5q29 0 80 -4.5t82 -10.5v-458v-11h123v-34zM366 34v442l-2 1q-66 8 -106 8
q-74 0 -113.5 -28.5t-53 -76t-13.5 -116.5q0 -66 9.5 -114.5t42 -82t95.5 -33.5h141z" />
    <glyph glyph-name="uniFEF0" unicode="&#x649;" horiz-adv-x="882" arabic-form="final" 
d="M882 0h-137q1 -10 1 -30q0 -56 -22 -106t-69.5 -81t-119.5 -31h-253q-76 0 -131 27.5t-83 72.5t-28 96q0 26 7 91.5t18 143.5l39 -6q-25 -163 -25 -214q0 -53 28 -93.5t73.5 -62t96.5 -21.5l256 -2q56 0 96 27.5t60 69.5t20 85q0 12 -2 34h-37q-70 0 -101 18l14 25
q12 -6 33.5 -7.5t58.5 -1.5h207v-34z" />
    <glyph glyph-name="uniFEF2" unicode="&#x64a;" horiz-adv-x="882" arabic-form="final" 
d="M40 0zM882 0h-137q1 -10 1 -30q0 -56 -22 -106t-69.5 -81t-119.5 -31h-253q-76 0 -131 27.5t-83 72.5t-28 96q0 26 7 91.5t18 143.5l39 -6q-25 -163 -25 -214q0 -53 28 -93.5t73.5 -62t96.5 -21.5l256 -2q56 0 96 27.5t60 69.5t20 85q0 12 -2 34h-37q-70 0 -101 18l14 25
q12 -6 33.5 -7.5t58.5 -1.5h207v-34zM303 -320h58v-57h-58v57zM410 -320h58v-57h-58v57z" />
    <glyph glyph-name="uniFEF3" unicode="&#x64a;" horiz-adv-x="275" arabic-form="initial" 
d="M0 0zM188 500v-500h-188v34h149v466h39zM83 -80h58v-57h-58v57zM190 -80h58v-57h-58v57z" />
    <glyph glyph-name="uniFEF4" unicode="&#x64a;" horiz-adv-x="336" arabic-form="medial" 
d="M0 0zM336 34v-34h-336v34h149v466h39v-466h148zM85 -80h58v-57h-58v57zM192 -80h58v-57h-58v57z" />
    <glyph glyph-name=".notdef" horiz-adv-x="235" 
 />
    <glyph glyph-name="uni0000" horiz-adv-x="0" 
 />
    <glyph glyph-name="uni0000" horiz-adv-x="0" 
 />
    <glyph glyph-name="nonmarkingreturn" horiz-adv-x="235" 
 />
    <glyph glyph-name="uni000D" unicode="&#xd;" horiz-adv-x="333" 
 />
    <glyph glyph-name="space" unicode=" " horiz-adv-x="220" 
 />
    <glyph glyph-name="exclam" unicode="!" horiz-adv-x="225" 
d="M95 700h35l1 -487h-37zM93 79h41v-79h-41v79z" />
    <glyph glyph-name="quotedbl" unicode="&#x22;" horiz-adv-x="348" 
d="M74 700h39l-3 -210h-33zM235 700h39l-4 -210h-33z" />
    <glyph glyph-name="numbersign" unicode="#" 
d="M150 191h-121v32h121v226h-121v32h121v189h36v-189h188v189h36v-189h121v-32h-121v-226h121v-32h-121v-191h-36v191h-188v-191h-36v191zM374 223v226h-188v-226h188z" />
    <glyph glyph-name="dollar" unicode="$" 
d="M212 -113l14 108q-1 -1 -25 1.5t-42 4.5l-62 6l-14 1l5 32q74 -10 141 -15l40 301q-73 14 -112 31t-58 51t-19 96q0 66 21 101.5t64.5 49.5t118.5 14l29 -2l17 123h35l-16 -124l23 -2q11 -1 30 -2.5t44 -4.5l24 -3l-3 -32l-28 3q-69 8 -93 10l-37 -281q69 -13 105.5 -30
t53.5 -48.5t17 -87.5q0 -98 -47 -146.5t-153 -48.5h-24l-14 -113q-35 3 -35 7zM310 639q-74 1 -115 -9.5t-60.5 -39.5t-19.5 -85q0 -48 15 -76t48 -43.5t95 -28.5zM404.5 60.5q45.5 40.5 45.5 129.5q0 46 -13.5 71t-43.5 38.5t-88 24.5l-39 -301q93 -3 138.5 37.5z" />
    <glyph glyph-name="percent" unicode="%" 
d="M65 433q-28 35 -28 104q0 132 104 132q51 0 77 -33.5t26 -98.5q0 -69 -27.5 -104t-75.5 -35t-76 35zM175 -1l185 670l31 -9l-185 -669zM192.5 455.5q16.5 26.5 16.5 83.5q0 52 -15.5 75t-51.5 23t-52 -23t-16 -75q0 -56 17 -83t51 -27t50.5 26.5zM345 26.5
q-27 35.5 -27 104.5q0 131 103 131q51 0 76.5 -33t25.5 -97q0 -69 -28 -105t-76 -36q-47 0 -74 35.5zM473 48.5q15 25.5 15 80.5t-15 78.5t-52 23.5t-53 -23t-16 -76q0 -57 16.5 -83t52.5 -26q37 0 52 25.5z" />
    <glyph glyph-name="ampersand" unicode="&#x26;" horiz-adv-x="679" 
d="M100.5 45q-53.5 54 -53.5 158q0 65 18.5 105t53.5 62.5t91 38.5q-24 25 -37.5 56.5t-13.5 75.5q0 76 39.5 114.5t115.5 38.5q75 0 113 -37.5t38 -108.5q0 -70 -38.5 -111t-126.5 -70l188 -184q15 45 22.5 84t11.5 100l35 1q-14 -140 -43 -212l140 -138l-24 -25l-131 130
q-39 -77 -92 -104.5t-129 -27.5q-124 0 -177.5 54zM396 453q35 33 35 93q0 59 -29 87t-90 28q-60 0 -89 -28t-29 -85q0 -74 45 -122l37 -34q85 28 120 61zM398.5 54q45.5 29 74.5 94l-236 235q-56 -15 -89 -34.5t-49 -52.5t-16 -87q0 -94 47 -139t144 -45q79 0 124.5 29z
" />
    <glyph glyph-name="quotesingle" unicode="'" horiz-adv-x="187" 
d="M74 700h39l-3 -210h-33z" />
    <glyph glyph-name="parenleft" unicode="(" horiz-adv-x="235" 
d="M80.5 114.5q-20.5 94.5 -20.5 189.5q0 96 23 202.5t73 243.5h35q-40 -106 -67.5 -235.5t-27.5 -223.5q0 -76 26 -187.5t69 -228.5h-35q-55 145 -75.5 239.5z" />
    <glyph glyph-name="parenright" unicode=")" horiz-adv-x="235" 
d="M44 -125q49 137 71 235t22 179q0 196 -93 461h35q49 -136 72.5 -243t23.5 -203q0 -94 -20.5 -189t-75.5 -240h-35z" />
    <glyph glyph-name="asterisk" unicode="*" horiz-adv-x="417" 
d="M193 510l-109 -79l-21 27l110 80l-108 79l21 28l109 -81l42 129l32 -10l-41 -130h134v-34h-138l43 -128l-33 -11z" />
    <glyph glyph-name="plus" unicode="+" 
d="M261 234h-203v34h203v213h36v-213h205v-34h-205v-215h-36v215z" />
    <glyph glyph-name="comma" unicode="," horiz-adv-x="196" 
d="M87 87h39l-51 -210h-32z" />
    <glyph glyph-name="hyphen" unicode="-" horiz-adv-x="458" 
d="M76 299h308v-36h-308v36z" />
    <glyph glyph-name="period" unicode="." horiz-adv-x="189" 
d="M74 79h41v-79h-41v79z" />
    <glyph glyph-name="slash" unicode="/" horiz-adv-x="376" 
d="M33 11l278 690l33 -13l-278 -689z" />
    <glyph glyph-name="zero" unicode="0" 
d="M150.5 21.5q-50.5 31.5 -76 105.5t-25.5 202q0 127 25.5 201.5t76 106.5t129.5 32q77 0 127 -32t76 -107t26 -201q0 -127 -25.5 -201.5t-75.5 -106t-128 -31.5q-79 0 -129.5 31.5zM389.5 51.5q41.5 28.5 62 95t20.5 182.5q0 115 -20.5 181.5t-62 95t-109.5 28.5
t-109.5 -28.5t-62 -95t-20.5 -181.5q0 -116 20.5 -182.5t62 -95t109.5 -28.5t109.5 28.5z" />
    <glyph glyph-name="one" unicode="1" 
d="M333 621l-188 -126l-16 28l205 137h36v-660h-37v621z" />
    <glyph glyph-name="two" unicode="2" 
d="M72 30l227 243q6 6 44.5 45.5t63.5 87.5t25 92q0 74 -41.5 105.5t-136.5 31.5q-62 0 -144 -20l-27 -7l-6 36q97 25 192 25q101 0 150.5 -40t49.5 -129q0 -64 -29 -115t-103 -124l-216 -229h369v-32h-418v30z" />
    <glyph glyph-name="three" unicode="3" 
d="M96 7l-31 7l7 35q105 -28 182 -28q89 0 144 35t55 127q0 71 -39.5 108t-122.5 41h-133v34h133q33 0 66.5 17.5t55.5 49.5t22 74q0 69 -35 98.5t-117 29.5q-101 0 -173 -15l-26 -6l-5 34q94 22 202 22q102 0 146.5 -39.5t44.5 -128.5q0 -46 -31.5 -90t-80.5 -58
q68 -19 99 -56t31 -114q0 -99 -49.5 -146t-154.5 -47q-89 0 -190 16z" />
    <glyph glyph-name="four" unicode="4" 
d="M387 142h-347v30l205 488h38l-200 -484h304v220h36v-220h98v-34h-98v-142h-36v142z" />
    <glyph glyph-name="five" unicode="5" 
d="M198 -3.5q-38 3.5 -95 14.5l-31 6l5 33q111 -24 188 -24q96 0 146 49.5t50 140.5q0 86 -44.5 124t-132.5 38q-35 0 -81.5 -14t-66.5 -28l-25 -14l-34 4l18 334h373v-37h-338l-19 -263q88 53 180 53q207 0 207 -193q0 -111 -56.5 -169t-160.5 -58q-45 0 -83 3.5z" />
    <glyph glyph-name="six" unicode="6" 
d="M117 75q-57 84 -57 255t63.5 255t183.5 84q82 0 145 -6l24 -3l-3 -35q-79 10 -174 10q-94 0 -147 -73t-53 -204l27 13q25 11 76 23t88 12q218 0 218 -199q0 -102 -58 -159t-161 -57q-115 0 -172 84zM422 71q48 46 48 133q0 84 -47.5 125.5t-133.5 41.5q-37 0 -88 -12
t-76 -23l-27 -13q1 -138 46 -218t134 -80q96 0 144 46z" />
    <glyph glyph-name="seven" unicode="7" 
d="M181 6l265 597v22h-364v35h402v-64l-266 -605z" />
    <glyph glyph-name="eight" unicode="8" 
d="M35 168q0 50 14 82.5t42.5 54.5t77.5 43q-64 23 -93.5 59.5t-29.5 97.5q0 85 61 125q57 40 171 40q113 0 174.5 -41.5t61.5 -124.5q0 -64 -31.5 -99t-103.5 -57q73 -21 109 -60.5t36 -108.5q0 -95 -57.5 -141.5t-185.5 -46.5q-246 0 -246 177zM331 364q76 18 110.5 49.5
t34.5 89.5q0 133 -196 133t-196 -129q0 -59 31 -92t99 -51h117zM486 178q0 46 -17 74.5t-49.5 45.5t-88.5 32h-117q-73 -18 -107 -55t-34 -107q0 -143 207 -143q206 0 206 153z" />
    <glyph glyph-name="nine" unicode="9" 
d="M99 0l-22 2l3 33q79 -10 166 -10q107 0 160 68.5t55 206.5q-106 -43 -203 -43q-107 0 -157.5 48t-50.5 146q0 65 27 114.5t76 76.5t112 27q120 0 177.5 -89t57.5 -264q0 -170 -63 -247.5t-191 -77.5q-59 0 -147 9zM429 323l33 12q-5 300 -192 300q-84 0 -133 -50
t-49 -134q0 -161 172 -161q72 0 169 33z" />
    <glyph glyph-name="colon" unicode=":" horiz-adv-x="191" 
d="M74 423h41v-79h-41v79zM74 79h41v-79h-41v79z" />
    <glyph glyph-name="semicolon" unicode=";" horiz-adv-x="227" 
d="M99 423h41v-79h-41v79zM105 87h40l-52 -210h-31z" />
    <glyph glyph-name="less" unicode="&#x3c;" 
d="M58 233v36l422 217v-40l-391 -195l391 -195v-41z" />
    <glyph glyph-name="equal" unicode="=" 
d="M68 353h424v-35h-424v35zM68 183h424v-34h-424v34z" />
    <glyph glyph-name="greater" unicode="&#x3e;" 
d="M78 56l391 195l-391 195v40l423 -217v-36l-423 -218v41z" />
    <glyph glyph-name="question" unicode="?" horiz-adv-x="454" 
d="M179 231q0 42 25 75.5t94 95.5q37 34 53.5 55.5t21.5 43t5 60.5q0 59 -39.5 86.5t-125.5 27.5q-34 0 -162 -27l-4 34q111 27 157 27q109 0 158.5 -37.5t49.5 -125.5q0 -39 -8 -64t-27 -47.5t-58 -57.5q-64 -56 -85 -86t-21 -63v-38h-33q-1 15 -1 41zM176 81h41v-79h-41
v79z" />
    <glyph glyph-name="at" unicode="@" horiz-adv-x="980" 
d="M307.5 -177q-77.5 22 -134.5 74q-113 98 -113 364q0 164 47.5 265t144.5 147t251 46q152 0 244.5 -43t135.5 -134t43 -237v-16q0 -128 -17 -192.5t-50 -85.5t-90 -21q-49 0 -76.5 15.5t-37.5 47.5q-109 -61 -192 -61q-50 0 -86 16t-59 67t-23 148q0 105 20.5 166.5t66 90
t124.5 28.5q50 0 111 -19l20 -7v18h35v-199q0 -195 15 -242q14 -28 29.5 -34t35 -5.5t27.5 0.5q50 0 73.5 39t29.5 93.5t6 136.5v17q0 137 -38 220.5t-122 122.5t-225 39q-143 0 -232 -42t-131.5 -136t-42.5 -251q0 -159 42 -252t130.5 -134t235.5 -41l143 11l1 -34
q-104 -8 -144 -8q-120 0 -197.5 22zM648 83q-11 61 -11 218v149q-76 27 -131 27q-66 0 -104.5 -25t-54.5 -76.5t-16 -136.5q0 -216 133 -216q46 0 184 60z" />
    <glyph glyph-name="A" unicode="A" horiz-adv-x="592" 
d="M463 215h-334l-66 -215h-34l214 700h33l6 5l-2 -5h32l-2 5l6 -5h33l214 -700h-34zM452 250l-2 7l1 -1l-129 410h-52l-128 -409l-2 -7h312z" />
    <glyph glyph-name="B" unicode="B" horiz-adv-x="621" 
d="M92 700h241q102 0 152 -43t50 -133q0 -67 -25.5 -105.5t-73.5 -56.5q64 -21 94.5 -63.5t30.5 -115.5q0 -97 -53 -140t-156 -43h-260v700zM343 375q79 0 116 37t37 112q0 76 -38.5 108.5t-125.5 32.5h-203v-290h214zM351 35q84 0 128.5 36t44.5 115q0 88 -50 121.5
t-131 33.5h-214v-306h222z" />
    <glyph glyph-name="C" unicode="C" horiz-adv-x="545" 
d="M164.5 32q-56.5 41 -77 118t-20.5 202q0 117 19 193t75.5 120t163.5 44q74 0 176 -19l-2 -35q-105 20 -183 20q-88 0 -132.5 -32.5t-61 -105.5t-16.5 -212q0 -105 16.5 -168t65.5 -97.5t145 -34.5q67 0 166 21l3 -35q-105 -20 -176 -20q-105 0 -161.5 41z" />
    <glyph glyph-name="D" unicode="D" horiz-adv-x="650" 
d="M539 599.5q46 -100.5 46 -228.5q0 -189 -64.5 -280t-169.5 -91h-259v700h259q142 0 188 -100.5zM450.5 69.5q44.5 36.5 71 108.5t26.5 176q0 157 -54 235t-143 78h-222v-634h222q55 0 99.5 36.5z" />
    <glyph glyph-name="E" unicode="E" horiz-adv-x="552" 
d="M129 374h312v-33h-312v-308h372v-33h-409v700h409v-33h-372v-293z" />
    <glyph glyph-name="F" unicode="F" horiz-adv-x="523" 
d="M129 667v-317h313v-33h-313v-317h-37v700h401v-33h-364z" />
    <glyph glyph-name="G" unicode="G" horiz-adv-x="619" 
d="M173 30q-57 39 -82.5 117t-25.5 201q0 124 24.5 202.5t81.5 118.5t155 40q90 0 188 -20l33 -5l-3 -35q-130 26 -227 26q-73 0 -119.5 -29t-70 -97t-23.5 -186q0 -123 20 -196t68.5 -107.5t135.5 -34.5q45 0 85.5 4.5t97.5 15.5v267h-151v35h187v-331q-113 -25 -221 -25
q-96 0 -153 39z" />
    <glyph glyph-name="H" unicode="H" horiz-adv-x="674" 
d="M581 700v-700h-34v334h-418v-334h-37v700h37v-331h418v331h34z" />
    <glyph glyph-name="I" unicode="I" horiz-adv-x="219" 
d="M92 700h37v-700h-37v700z" />
    <glyph glyph-name="J" unicode="J" horiz-adv-x="280" 
d="M17 -38q68 0 94.5 7t35 33.5t8.5 93.5v604h35l1 -618q0 -69 -16.5 -102.5t-44 -43t-73.5 -9.5h-40v35z" />
    <glyph glyph-name="K" unicode="K" horiz-adv-x="553" 
d="M256 327l-127 2v-329h-37v700h37v-337l124 -2l225 339h42l-236 -354l251 -346h-45z" />
    <glyph glyph-name="L" unicode="L" horiz-adv-x="484" 
d="M469 34v-34h-377v700h37v-666h340z" />
    <glyph glyph-name="M" unicode="M" horiz-adv-x="828" 
d="M736 700v-700h-37v666h-9l-250 -644h-52l-251 644h-8v-666h-37v700h75l247 -636l247 636h75z" />
    <glyph glyph-name="N" unicode="N" horiz-adv-x="665" 
d="M572 700v-700h-83l-341 667h-19v-667h-37v700h85l338 -667h23v667h34z" />
    <glyph glyph-name="O" unicode="O" horiz-adv-x="665" 
d="M172.5 28q-58.5 37 -82.5 114t-24 205q0 126 25 205t83.5 118t158.5 39t158.5 -38.5t84 -118t25.5 -208.5q0 -132 -24.5 -208t-82.5 -110.5t-160 -34.5q-103 0 -161.5 37zM474 56.5q49 31.5 69 99.5t20 188q0 119 -21 190.5t-71 106t-138 34.5q-89 0 -139 -34
t-70.5 -104.5t-20.5 -189.5q0 -124 21 -193t70.5 -99t139.5 -30q91 0 140 31.5z" />
    <glyph glyph-name="P" unicode="P" horiz-adv-x="596" 
d="M92 700h255q108 0 157.5 -51.5t49.5 -162.5q0 -117 -51 -173.5t-156 -56.5h-218v-256h-37v700zM346 291q170 0 170 195q0 92 -40.5 135.5t-129.5 43.5h-217v-374h217z" />
    <glyph glyph-name="Q" unicode="Q" horiz-adv-x="665" 
d="M443 4q-52 -13 -110 -13q-103 0 -161 37.5t-82 114t-24 204.5q0 126 25 205t83.5 118t158.5 39t158.5 -38.5t84 -117t25.5 -205.5q0 -142 -26.5 -218.5t-94.5 -110.5l86 -139l-36 -18zM474.5 56.5q49.5 31.5 69 99.5t19.5 188q0 119 -21 190.5t-71 106t-138 34.5
q-89 0 -139 -34t-70.5 -104.5t-20.5 -188.5q0 -124 21.5 -193t71 -99.5t138.5 -30.5q91 0 140.5 31.5z" />
    <glyph glyph-name="R" unicode="R" horiz-adv-x="613" 
d="M92 700h251q105 0 156.5 -48.5t51.5 -152.5q0 -179 -145 -204l157 -295h-41l-155 290h-238v-290h-37v700zM343 324q86 0 128.5 41.5t42.5 129.5t-41.5 129t-129.5 41h-214v-341h214z" />
    <glyph glyph-name="S" unicode="S" horiz-adv-x="541" 
d="M96 5l-36 4l4 35q138 -18 208 -18q176 0 176 173q0 48 -13 74t-49.5 42t-112.5 28q-85 14 -130 33t-66.5 55.5t-21.5 103.5q0 88 52.5 131.5t164.5 43.5q88 0 199 -15l-4 -36q-151 18 -196 18q-177 0 -177 -140q0 -57 11.5 -83t49.5 -41.5t128 -32.5q76 -13 119 -31.5
t63 -53t20 -92.5q0 -108 -50 -159t-161 -51q-55 0 -178 12z" />
    <glyph glyph-name="T" unicode="T" horiz-adv-x="526" 
d="M247 666h-234v34h500v-34h-232v-666h-34v666z" />
    <glyph glyph-name="U" unicode="U" horiz-adv-x="637" 
d="M144.5 40q-56.5 49 -56.5 157v503h36v-505q0 -170 190 -170q101 0 151 40t50 130v505h34v-503q0 -108 -58 -157t-174 -49t-172.5 49z" />
    <glyph glyph-name="V" unicode="V" horiz-adv-x="568" 
d="M29 700h37l186 -667h64l186 667h37l-197 -700h-116z" />
    <glyph glyph-name="W" unicode="W" horiz-adv-x="857" 
d="M37 700h37l141 -665h38l154 655h43l154 -655h38l141 665h35l-147 -700h-96l-147 640l-147 -640h-95z" />
    <glyph glyph-name="X" unicode="X" horiz-adv-x="551" 
d="M252 348l-226 352h43l207 -327l208 327h43l-225 -354l225 -346h-43l-206 322l-209 -322h-43z" />
    <glyph glyph-name="Y" unicode="Y" horiz-adv-x="525" 
d="M245 302l-228 398h43l203 -359l203 359h43l-228 -398v-302h-36v302z" />
    <glyph glyph-name="Z" unicode="Z" horiz-adv-x="539" 
d="M44 67l413 575v25h-413v33h450v-70l-414 -575v-22h414v-35h-450v69z" />
    <glyph glyph-name="bracketleft" unicode="[" horiz-adv-x="312" 
d="M86 749h182v-32h-146v-808h146v-32h-182v872z" />
    <glyph glyph-name="backslash" unicode="\" horiz-adv-x="395" 
d="M29 687l35 14l300 -686l-34 -14z" />
    <glyph glyph-name="bracketright" unicode="]" horiz-adv-x="312" 
d="M43 -123v32h147v808h-147v32h182v-872h-182z" />
    <glyph glyph-name="asciicircum" unicode="^" 
d="M262 660h35l189 -337h-40l-165 300l-158 -300h-40z" />
    <glyph glyph-name="underscore" unicode="_" horiz-adv-x="640" 
d="M106 -105h428v-34h-428v34z" />
    <glyph glyph-name="grave" unicode="`" horiz-adv-x="215" 
d="M10 701l16 30l192 -95l-15 -27z" />
    <glyph glyph-name="a" unicode="a" horiz-adv-x="494" 
d="M81.5 29q-34.5 38 -34.5 105t33.5 102.5t105.5 45.5l190 19v51q0 62 -26 92.5t-71 30.5q-44 0 -77.5 -3t-125.5 -14l-3 33q104 18 189 18q77 0 113.5 -38.5t36.5 -118.5v-288q1 -15 21 -26.5t53 -15.5l-2 -31q-33 0 -61.5 12t-41.5 32q-100 -44 -202 -44q-63 0 -97.5 38z
M348 54l28 11v203l-186 -18q-55 -4 -79.5 -30.5t-24.5 -79.5q0 -116 94 -116q87 0 168 30z" />
    <glyph glyph-name="b" unicode="b" horiz-adv-x="514" 
d="M100 -2l-21 2v730h34v-262q84 41 174 41q65 0 101 -25.5t51 -80t15 -149.5q0 -106 -20.5 -161t-72 -77.5t-150.5 -22.5q-63 0 -111 5zM348 46.5q40 23.5 55 73t15 138.5q0 85 -12 131.5t-41 67t-83 20.5q-72 0 -169 -40v-408q28 -2 38 -2q64 -4 79 -4q78 0 118 23.5z" />
    <glyph glyph-name="c" unicode="c" horiz-adv-x="429" 
d="M137.5 17.5q-42.5 26.5 -60 82.5t-17.5 153q0 70 9.5 122.5t50 93.5t123.5 41q33 0 61.5 -2t81.5 -10l-3 -31q-76 10 -123 10q-63 0 -98 -21t-50 -70.5t-15 -139.5q0 -84 14 -131.5t50.5 -69.5t104.5 -22l119 10l2 -32q-93 -10 -129 -10q-78 0 -120.5 26.5z" />
    <glyph glyph-name="d" unicode="d" horiz-adv-x="516" 
d="M97 51.5q-39 60.5 -39 188.5q0 97 21.5 155.5t69.5 86t129 27.5q30 0 64 -3.5t59 -9.5v234h34v-730h-34v43q-79 -52 -173 -52q-92 0 -131 60.5zM312.5 36q43.5 13 64.5 26l24 13v389q-73 14 -129 14q-67 0 -105.5 -24.5t-54.5 -74t-16 -131.5q0 -112 30 -168.5t104 -56.5
q39 0 82.5 13z" />
    <glyph glyph-name="e" unicode="e" horiz-adv-x="502" 
d="M104 50.5q-45 59.5 -45 185.5q0 140 48.5 206.5t153.5 66.5q96 0 142 -58t46 -182v-33h-354q-1 -79 15 -124.5t54 -67t107 -21.5q26 0 61.5 2t67.5 4l30 3l2 -33q-122 -8 -172 -8q-111 0 -156 59.5zM412 268q0 111 -36 160t-114 49q-83 0 -125 -51t-43 -158h318z" />
    <glyph glyph-name="f" unicode="f" horiz-adv-x="314" 
d="M98 468h-69v32h69v60q0 70 12 108.5t39.5 54.5t75.5 16l93 -6l-1 -28q-76 1 -88.5 1.5t-15.5 0.5q-48 0 -64 -35.5t-16 -112.5v-59h161v-32h-161v-468h-35v468z" />
    <glyph glyph-name="g" unicode="g" horiz-adv-x="501" 
d="M130 -222q-41 16 -56 48t-15 88q0 36 7.5 56.5t22 34t53.5 43.5q-11 7 -16.5 24.5t-5.5 36.5q0 12 5.5 27t25.5 55q-86 25 -86 152q0 85 41 126t134 41q49 0 102 -13l140 3v-35l-109 -1q20 -14 30.5 -45.5t10.5 -76.5q0 -88 -43 -125.5t-138 -37.5q-32 0 -55 4l-8 -20
q-7 -17 -11 -30t-4 -25q0 -30 21.5 -40t63.5 -10l69 1q54 0 88 -11t52.5 -40.5t18.5 -85.5t-20 -90.5t-67.5 -52t-130.5 -17.5q-79 0 -120 16zM346 240.5q31 29.5 31 104.5q0 74 -30.5 103.5t-105.5 29.5q-77 0 -109 -30.5t-32 -104.5t31.5 -103t107.5 -29t107 29.5z
M361 -194.5q38 12.5 54.5 41t16.5 78.5q0 42 -10.5 63t-40.5 30t-92 8l-120 4q-33 -22 -48 -36.5t-21 -31.5t-6 -46q0 -48 14.5 -74.5t48.5 -37.5t98 -11q68 0 106 12.5z" />
    <glyph glyph-name="h" unicode="h" horiz-adv-x="526" 
d="M79 730h35v-261q91 40 176 40q67 0 101.5 -22t48 -74.5t13.5 -153.5v-259h-36v258q0 92 -10 137.5t-37.5 63.5t-83.5 18q-41 0 -76 -7.5t-73 -22.5l-23 -9v-438h-35v730z" />
    <glyph glyph-name="i" unicode="i" horiz-adv-x="191" 
d="M78 0zM79 500h34v-500h-34v500zM78 700h34v-55h-34v55z" />
    <glyph glyph-name="j" unicode="j" horiz-adv-x="192" 
d="M0 0zM-59 -188q60 33 88.5 57t39.5 54.5t11 82.5v494h34v-495q0 -59 -13.5 -95.5t-46.5 -65t-98 -62.5zM79 700h34v-55h-34v55z" />
    <glyph glyph-name="k" unicode="k" horiz-adv-x="455" 
d="M79 730h35v-441h96l173 211h41l-185 -225l192 -275h-41l-181 257l-95 1v-258h-35v730z" />
    <glyph glyph-name="l" unicode="l" horiz-adv-x="205" 
d="M85 730h35v-730h-35v730z" />
    <glyph glyph-name="m" unicode="m" horiz-adv-x="834" 
d="M79 500h34v-40q80 49 169 49q96 0 129 -54q29 20 85 37t115 17q60 0 92 -24t44.5 -77t12.5 -149v-259h-35v259q0 89 -9.5 134.5t-35 64.5t-76.5 19q-48 0 -94 -12t-65 -25l-22 -12q19 -4 19 -167v-261h-35v259q0 86 -9.5 132t-34.5 66t-74 20q-44 0 -88.5 -11.5
t-65.5 -25.5l-21 -13v-427h-35v500z" />
    <glyph glyph-name="n" unicode="n" horiz-adv-x="526" 
d="M79 500h34v-40q51 27 93.5 38t87.5 11q65 0 98.5 -22t47 -75t13.5 -153v-259h-34v259q0 86 -9.5 132t-35 66t-74.5 20q-45 0 -91.5 -12t-70.5 -25l-24 -13v-427h-35v500z" />
    <glyph glyph-name="o" unicode="o" horiz-adv-x="525" 
d="M135.5 14.5q-43.5 23.5 -60 77t-16.5 152.5q0 104 18 160.5t61.5 80.5t124.5 24t124.5 -24.5t61 -81t17.5 -159.5q0 -99 -16 -152t-59.5 -77t-127.5 -24t-127.5 23.5zM369.5 44.5q34.5 20.5 46.5 66t12 133.5q0 95 -13 143.5t-47.5 68.5t-103.5 20t-104.5 -20t-49 -69
t-13.5 -143q0 -87 12.5 -133t48 -66.5t106.5 -20.5t105.5 20.5z" />
    <glyph glyph-name="p" unicode="p" horiz-adv-x="516" 
d="M79 500h34v-42q84 51 174 51q91 0 131 -60t40 -191q0 -95 -21 -153t-69 -86t-129 -28q-62 0 -125 13v-234h-35v730zM382.5 76.5q39.5 54.5 39.5 176.5q0 120 -33.5 172t-98.5 52q-38 0 -82 -13t-70 -27l-24 -13v-387q41 -6 76 -10.5t60 -4.5q93 0 132.5 54.5z" />
    <glyph glyph-name="q" unicode="q" horiz-adv-x="515" 
d="M400 28q-35 -18 -77 -27.5t-84 -9.5q-98 0 -139.5 59t-41.5 192q0 96 21.5 153.5t71 85.5t135.5 28l148 -8v-731h-34v258zM379 53l21 10v407q-82 8 -116 8q-73 0 -114 -25t-58 -76.5t-17 -135.5q0 -80 14 -127t45.5 -69t86.5 -22q68 0 138 30z" />
    <glyph glyph-name="r" unicode="r" horiz-adv-x="329" 
d="M79 500h34v-78q87 65 199 88v-36q-42 -8 -94.5 -30t-74.5 -39l-29 -17v-388h-35v500z" />
    <glyph glyph-name="s" unicode="s" horiz-adv-x="460" 
d="M86 3l-29 4l4 34q118 -18 170 -18q75 0 110 26.5t35 84.5q0 41 -16.5 62.5t-42 30t-72.5 15.5q-18 2 -27 4q-68 11 -103 25.5t-49.5 37.5t-14.5 62q0 78 47 107.5t136 29.5q79 0 136 -9l25 -5l-2 -32q-48 8 -92.5 12t-70.5 4q-76 0 -109.5 -26t-33.5 -75
q0 -37 17.5 -55.5t43.5 -25.5t91 -19q69 -12 103.5 -25t52 -39t17.5 -74q0 -78 -46.5 -113t-141.5 -35q-51 0 -138 12z" />
    <glyph glyph-name="t" unicode="t" horiz-adv-x="342" 
d="M158 5.5q-26 15.5 -37.5 53.5t-11.5 109v300h-79v32h79v162h34v-162h183v-32h-183v-262q0 -76 5.5 -112.5t24.5 -54.5t62 -18l97 9l5 -32q-82 -8 -107 -8q-46 0 -72 15.5z" />
    <glyph glyph-name="u" unicode="u" horiz-adv-x="516" 
d="M133 12.5q-33 21.5 -46 74t-13 153.5v260h35v-257q0 -89 9.5 -135t35.5 -65.5t77 -19.5q48 0 91.5 13.5t79.5 36.5v427h36v-500h-37v40q-39 -25 -78.5 -37t-91.5 -12q-65 0 -98 21.5z" />
    <glyph glyph-name="v" unicode="v" horiz-adv-x="470" 
d="M32 500h40l141 -468h43l146 468h38l-155 -500h-98z" />
    <glyph glyph-name="w" unicode="w" horiz-adv-x="755" 
d="M36 500h37l127 -468h11l148 458h38l147 -458h13l126 468h37l-135 -500h-69l-138 448l-139 -448h-68z" />
    <glyph glyph-name="x" unicode="x" horiz-adv-x="437" 
d="M198 249l-171 251h42l150 -223l149 223h41l-170 -250l169 -250h-42l-147 223l-150 -223h-42z" />
    <glyph glyph-name="y" unicode="y" horiz-adv-x="472" 
d="M246 0h-60l-155 500h37l148 -468h39l150 468h37l-230 -730h-37z" />
    <glyph glyph-name="z" unicode="z" horiz-adv-x="456" 
d="M43 32l326 436h-326v32h371v-32l-327 -436h327v-32h-371v32z" />
    <glyph glyph-name="braceleft" unicode="{" horiz-adv-x="346" 
d="M166.5 -78.5q-40.5 41.5 -40.5 131.5l7 123q0 47 -23.5 74.5t-80.5 43.5v33q57 12 80.5 40.5t23.5 78.5l-7 128q0 91 41 132t135 45l1 -32q-79 -4 -110.5 -37.5t-31.5 -107.5l7 -119q0 -64 -21.5 -95t-78.5 -49q55 -19 77 -49.5t22 -92.5l-7 -116q0 -73 32 -107t113 -38
l-4 -32q-94 4 -134.5 45.5z" />
    <glyph glyph-name="bar" unicode="|" horiz-adv-x="205" 
d="M85 730h34v-960h-34v960z" />
    <glyph glyph-name="braceright" unicode="}" horiz-adv-x="346" 
d="M41 -92q81 4 113 38t32 107l-7 116q0 62 22 92.5t77 49.5q-57 18 -78.5 49t-21.5 95l7 119q0 74 -31.5 107.5t-110.5 37.5l1 32q94 -4 135 -45t41 -132l-7 -128q0 -50 23.5 -78.5t80.5 -40.5v-33q-57 -16 -80.5 -43.5t-23.5 -74.5l7 -123q0 -90 -40.5 -131.5
t-134.5 -45.5z" />
    <glyph glyph-name="asciitilde" unicode="~" 
d="M278 249q-74 37 -92 37q-17 0 -41 -11.5t-45 -27.5l-17 -14l-12 32q62 54 111 54q29 0 104 -35q71 -37 91 -37q37 0 88 38l17 13l12 -30q-39 -31 -65.5 -43.5t-52.5 -12.5q-27 0 -98 37z" />
    <glyph glyph-name="uni00A0" unicode="&#xa0;" horiz-adv-x="220" 
 />
    <glyph glyph-name="exclamdown" unicode="&#xa1;" horiz-adv-x="204" 
d="M121 500v-79h-40v79h40zM118 287l-1 -487h-35v487h36z" />
    <glyph glyph-name="cent" unicode="&#xa2;" 
d="M283 41q-65 3 -102 21.5t-54 61t-17 120.5q0 114 41 164t132 54v129h35v-132l116 -11l-2 -33q-68 9 -129 9q-60 0 -93.5 -17t-47 -55t-13.5 -105t13.5 -103.5t46.5 -52t95 -15.5l129 9l3 -35q-90 -9 -118 -9v-126h-35v126z" />
    <glyph glyph-name="sterling" unicode="&#xa3;" 
d="M83 34h93v340h-69v32h69v53q0 85 12.5 129.5t41 62.5t82.5 18q49 0 97 -8l22 -4l1 -32q-94 13 -122 13q-41 0 -62.5 -15t-30 -53.5t-8.5 -115.5v-48h183v-32h-183v-340h174l83 16l7 -32l-82 -18h-308v34z" />
    <glyph glyph-name="currency" unicode="&#xa4;" 
d="M77 76l68 68q-35 49 -35 106q0 60 35 110l-68 68l27 27l68 -69q47 36 106 36q61 0 110 -36l68 69l27 -27l-69 -68q36 -49 36 -110q0 -59 -36 -106l69 -68l-27 -27l-68 69q-49 -36 -110 -36t-106 36l-68 -69zM347 136q31 18 49 49t18 67t-18 67t-49 49t-67 18t-67 -18
t-49 -49t-18 -67q0 -56 39 -95t95 -39q36 0 67 18z" />
    <glyph glyph-name="yen" unicode="&#xa5;" 
d="M263 182h-205v34h205v115h-207v34h172l-193 295h41l205 -309l202 309h41l-189 -295h167v-34h-203v-115h205v-34h-205v-182h-36v182z" />
    <glyph glyph-name="brokenbar" unicode="&#xa6;" horiz-adv-x="209" 
d="M87 730h34v-375h-34v375zM87 147h34v-377h-34v377z" />
    <glyph glyph-name="section" unicode="&#xa7;" horiz-adv-x="487" 
d="M106 -115l-29 5l3 33q110 -15 165 -15q67 0 102.5 32t35.5 95q0 55 -31 75q-32 18 -119 30q-90 13 -130.5 44.5t-40.5 98.5q0 36 19.5 72.5t34.5 48.5q-44 32 -44 113q0 143 175 143q46 0 132 -10l24 -3l-2 -33q-108 15 -165 15q-60 0 -94.5 -28t-34.5 -82q0 -46 9 -67
t39.5 -33.5t101.5 -24.5q88 -13 126.5 -42.5t38.5 -95.5q0 -65 -40 -127q17 -14 26.5 -40.5t9.5 -53.5q0 -76 -45.5 -117t-128.5 -41q-77 0 -138 8zM374 190q12 38 12 75q0 30 -13.5 48.5t-46 31t-92.5 22.5q-45 6 -58.5 9.5t-34.5 12.5q-44 -75 -44 -116q0 -43 35 -67
t120 -37q89 -16 104 -25q6 8 18 46z" />
    <glyph glyph-name="dieresis" unicode="&#xa8;" horiz-adv-x="215" 
d="M0 700h35v-62h-35v62zM189 700h37v-62h-37v62z" />
    <glyph glyph-name="copyright" unicode="&#xa9;" horiz-adv-x="646" 
d="M193.5 203.5q-58.5 35.5 -92 96.5t-33.5 134q0 74 33.5 134.5t91.5 96t129 35.5q72 0 130.5 -35.5t92.5 -96.5t34 -134t-33.5 -134t-91.5 -96.5t-130 -35.5t-130.5 35.5zM436.5 233q51.5 31 81 84t29.5 118q0 64 -29.5 117.5t-80.5 84.5t-113 31q-97 0 -161 -68
q-63 -69 -63 -166q0 -65 29 -118t80 -83.5t113 -30.5q63 0 114.5 31zM238.5 317.5q-24.5 36.5 -24.5 115.5t24.5 116t83.5 37q46 0 65 -3l10 -3l-2 -31q-39 6 -79 6q-39 0 -54 -27.5t-15 -93.5q0 -68 15 -95t61 -27l72 9l2 -32q-39 -8 -70 -8q-64 0 -88.5 36.5z" />
    <glyph glyph-name="ordfeminine" unicode="&#xaa;" horiz-adv-x="372" 
d="M81.5 408q-19.5 22 -19.5 58q0 70 75 76l102 7v23q0 30 -12.5 43.5t-39.5 13.5l-104 -7l-2 29q74 8 109 8q41 0 60.5 -21t19.5 -67v-134q11 -17 37 -23l-2 -28q-32 2 -54 22q-62 -22 -119 -22q-31 0 -50.5 22zM223 430l16 5v85l-97 -6q-25 -1 -36 -13t-11 -37
q0 -47 40 -47q42 0 88 13z" />
    <glyph glyph-name="guillemotleft" unicode="&#xab;" horiz-adv-x="498" 
d="M48 234v36l167 129v-38l-134 -107l134 -118v-40zM256 234v36l167 129v-38l-134 -107l134 -118v-40z" />
    <glyph glyph-name="logicalnot" unicode="&#xac;" 
d="M456 298h-386v33h423v-205h-37v172z" />
    <glyph glyph-name="registered" unicode="&#xae;" horiz-adv-x="646" 
d="M193.5 203.5q-58.5 35.5 -92 97t-33.5 134.5t33.5 134t91.5 96t130 35t130.5 -35t92 -95.5t33.5 -134.5t-33.5 -135t-92 -96.5t-130.5 -35.5q-71 0 -129.5 35.5zM437 232.5q51 30.5 80.5 83.5t29.5 118t-29.5 118.5t-80.5 84.5t-113 31t-113 -30.5t-81 -83.5t-30 -118
t29 -118.5t80 -84.5t114 -31t114 30.5zM221 581h93q60 0 87 -19.5t27 -62.5q0 -42 -14 -63.5t-46 -31.5l64 -118h-35l-64 116h-79v-116h-33v295zM332 433q34 0 48.5 13.5t14.5 45.5q0 59 -80 59h-62v-118h79z" />
    <glyph glyph-name="macron" unicode="&#xaf;" horiz-adv-x="215" 
d="M-20 674h267v-32h-267v32z" />
    <glyph glyph-name="degree" unicode="&#xb0;" 
d="M181.5 475.5q-38.5 37.5 -38.5 98.5q0 60 38 97.5t99 37.5t99 -37.5t38 -97.5q0 -61 -38 -98.5t-99 -37.5q-60 0 -98.5 37.5zM355.5 497.5q28.5 28.5 28.5 76.5q0 46 -29 74.5t-75 28.5q-45 0 -73.5 -28t-28.5 -75q0 -48 27.5 -76.5t74.5 -28.5t75.5 28.5z" />
    <glyph glyph-name="plusminus" unicode="&#xb1;" 
d="M261 308h-203v34h203v138h36v-138h205v-34h-205v-145h-36v145zM58 84h444v-33h-444v33z" />
    <glyph glyph-name="uni00B2" unicode="&#xb2;" horiz-adv-x="280" 
d="M36 510l98 105q54 59 54 101q0 26 -14 38.5t-43 12.5l-91 -11v29q45 14 94 14q90 0 90 -92q0 -26 -14.5 -51.5t-50.5 -61.5l-79 -83h150v-33h-194v32z" />
    <glyph glyph-name="uni00B3" unicode="&#xb3;" horiz-adv-x="280" 
d="M37 480l2 31q65 -9 112 -9q56 0 56 61t-61 61h-64v31h66q18 0 34 19.5t16 44.5q0 47 -57 47l-98 -8l-2 31q50 10 98 10q94 0 94 -80q0 -50 -46 -75q30 -10 42.5 -26.5t12.5 -57.5q0 -91 -98 -91z" />
    <glyph glyph-name="acute" unicode="&#xb4;" horiz-adv-x="268" 
d="M40 636l192 95l17 -30l-194 -92z" />
    <glyph glyph-name="uni00B5" unicode="&#xb5;" 
d="M98 500h36v-241q-1 -100 8.5 -148.5t36.5 -68t83 -19.5q37 0 80 12.5t63 24.5l21 13v427h36v-500h-36v40q-80 -49 -150 -49q-93 0 -142 27v-248h-36v730z" />
    <glyph glyph-name="paragraph" unicode="&#xb6;" horiz-adv-x="589" 
d="M233 349h-7q-53 0 -95 22.5t-66.5 62t-24.5 90.5q0 50 24.5 90.5t67 63t94.5 22.5h328v-32h-96v-668h-38v668h-152v-668h-35v349z" />
    <glyph glyph-name="periodcentered" unicode="&#xb7;" horiz-adv-x="191" 
d="M74 350h41v-80h-41v80z" />
    <glyph glyph-name="cedilla" unicode="&#xb8;" horiz-adv-x="262" 
d="M61 -198l-11 1l2 28q60 -4 78 -4q48 0 48 46q0 42 -48 42h-54v86h33v-58q57 1 80 -14.5t23 -54.5q0 -38 -19.5 -56.5t-61.5 -18.5q-46 0 -70 3z" />
    <glyph glyph-name="uni00B9" unicode="&#xb9;" horiz-adv-x="280" 
d="M144 751l-82 -57l-15 29l97 67h36v-312h-36v273z" />
    <glyph glyph-name="ordmasculine" unicode="&#xba;" horiz-adv-x="353" 
d="M62 525q0 70 28.5 102t87.5 32q58 0 85 -32t27 -102q0 -139 -112 -139q-116 0 -116 139zM238 442q18 25 18 83q0 56 -17.5 79t-60.5 23q-44 0 -62.5 -23.5t-18.5 -78.5q0 -58 19 -83t62 -25q42 0 60 25z" />
    <glyph glyph-name="guillemotright" unicode="&#xbb;" horiz-adv-x="496" 
d="M75 136l134 118l-134 107v38l166 -129v-36l-166 -138v40zM283 136l134 118l-134 107v38l166 -129v-36l-166 -138v40z" />
    <glyph glyph-name="onequarter" unicode="&#xbc;" 
d="M199 639l-19 -30v-131h-36v73l-338 -541l-30 17l368 595v129l-82 -57l-15 29l97 67h36v-139zM530 -10v-33h-37v-57h-35v57h-147v31l89 224h38l-87 -222h107l-1 88h36v-88h37z" />
    <glyph glyph-name="onehalf" unicode="&#xbd;" 
d="M199 639l-19 -30v-131h-36v73l-338 -541l-30 17l368 595v129l-82 -57l-15 29l97 67h36v-139zM510 -67v-33h-194v32l98 105q54 59 54 101q0 26 -14 38.5t-43 12.5l-91 -11v29q45 14 94 14q90 0 90 -92q0 -26 -14.5 -51.5t-50.5 -61.5l-79 -83h150z" />
    <glyph glyph-name="threequarters" unicode="&#xbe;" 
d="M0 0zM-224 27l391 632l32 -20l-393 -629zM178 -43h-147v31l89 224h38l-87 -222h107l-1 88h36v-88h37v-33h-37v-57h-35v57zM317 480l2 31q65 -9 112 -9q56 0 56 61t-61 61h-64v31h66q18 0 34 19.5t16 44.5q0 47 -57 47l-98 -8l-2 31q50 10 98 10q94 0 94 -80
q0 -50 -46 -75q30 -10 42.5 -26.5t12.5 -57.5q0 -91 -98 -91z" />
    <glyph glyph-name="questiondown" unicode="&#xbf;" horiz-adv-x="446" 
d="M280 421h-41v79h41v-79zM277 271q0 -42 -25 -75.5t-94 -95.5q-37 -34 -53.5 -55.5t-21.5 -43t-5 -60.5q0 -59 39.5 -86.5t125.5 -27.5q34 0 162 27l4 -34q-111 -27 -157 -27q-109 0 -158.5 37.5t-49.5 125.5q0 39 8 64t27 47.5t58 57.5q64 56 85 86t21 63v38h33
q1 -15 1 -41z" />
    <glyph glyph-name="Agrave" unicode="&#xc0;" horiz-adv-x="592" 
d="M29 0zM177 892l16 30l192 -96l-17 -27zM463 215h-334l-66 -215h-34l214 700h33l6 5l-2 -5h32l-2 5l6 -5h33l214 -700h-34zM452 250l-2 7l1 -1l-129 410h-52l-128 -409l-2 -7h312z" />
    <glyph glyph-name="Aacute" unicode="&#xc1;" horiz-adv-x="592" 
d="M29 0zM463 215h-334l-66 -215h-34l214 700h33l6 5l-2 -5h32l-2 5l6 -5h33l214 -700h-34zM452 250l-2 7l1 -1l-129 410h-52l-128 -409l-2 -7h312zM202 826l192 96l16 -30l-191 -93z" />
    <glyph glyph-name="Acircumflex" unicode="&#xc2;" horiz-adv-x="592" 
d="M29 0zM463 215h-334l-66 -215h-34l214 700h33l6 5l-2 -5h32l-2 5l6 -5h33l214 -700h-34zM452 250l-2 7l1 -1l-129 410h-52l-128 -409l-2 -7h312zM279 934h30l134 -126h-45l-104 96l-104 -96h-45z" />
    <glyph glyph-name="Atilde" unicode="&#xc3;" horiz-adv-x="592" 
d="M29 0zM463 215h-334l-66 -215h-34l214 700h33l6 5l-2 -5h32l-2 5l6 -5h33l214 -700h-34zM452 250l-2 7l1 -1l-129 410h-52l-128 -409l-2 -7h312zM293 863q-57 29 -73 29q-22 0 -57 -38l-13 -14l-9 30q20 23 42.5 38.5t39.5 15.5q18 0 80 -30q61 -30 70 -30q18 0 52 37
l11 12l10 -29q-28 -34 -43 -42.5t-31 -8.5q-18 0 -79 30z" />
    <glyph glyph-name="Adieresis" unicode="&#xc4;" horiz-adv-x="592" 
d="M29 0zM463 215h-334l-66 -215h-34l214 700h33l6 5l-2 -5h32l-2 5l6 -5h33l214 -700h-34zM452 250l-2 7l1 -1l-129 410h-52l-128 -409l-2 -7h312zM179 899h37v-62h-37v62zM375 899h35v-62h-35v62z" />
    <glyph glyph-name="Aring" unicode="&#xc5;" horiz-adv-x="592" 
d="M463 215h-334l-66 -215h-34l208 681q-20 12 -30.5 32.5t-10.5 46.5q0 41 27 66t72 25q44 0 70 -25t26 -66q0 -52 -37 -77l209 -683h-34zM246 806q-15 -15 -15 -46q0 -48 40 -60h5l6 5l-2 -5h32l-2 5l6 -5h3q40 12 40 60q0 29 -16 45t-48 16q-34 0 -49 -15zM452 250l-2 7
l1 -1l-129 410h-52l-128 -409l-2 -7h312z" />
    <glyph glyph-name="AE" unicode="&#xc6;" horiz-adv-x="879" 
d="M276 700h552v-34h-373v-288h313v-34h-313v-310h373v-34h-409v214h-277l-77 -214h-40zM419 249l1 417h-115l-150 -417h264z" />
    <glyph glyph-name="Ccedilla" unicode="&#xc7;" horiz-adv-x="545" 
d="M406 -71.5q23 -15.5 23 -54.5q0 -38 -19.5 -56.5t-61.5 -18.5q-46 0 -70 3l-11 1l2 28q60 -4 78 -4q48 0 48 46q0 42 -48 42h-54v77q-91 6 -140 49t-67.5 118t-18.5 193q0 117 19 193t75.5 120t163.5 44q74 0 176 -19l-2 -35q-105 20 -183 20q-88 0 -132.5 -32.5
t-61 -105.5t-16.5 -212q0 -105 16.5 -168t65.5 -97.5t145 -34.5q67 0 166 21l3 -35q-105 -20 -176 -20v-48q57 1 80 -14.5z" />
    <glyph glyph-name="Egrave" unicode="&#xc8;" horiz-adv-x="552" 
d="M92 0zM129 374h312v-33h-312v-308h372v-33h-409v700h409v-33h-372v-293zM189 892l16 30l192 -96l-17 -27z" />
    <glyph glyph-name="Eacute" unicode="&#xc9;" horiz-adv-x="552" 
d="M92 0zM129 374h312v-33h-312v-308h372v-33h-409v700h409v-33h-372v-293zM190 826l192 96l16 -30l-191 -93z" />
    <glyph glyph-name="Ecircumflex" unicode="&#xca;" horiz-adv-x="552" 
d="M92 0zM129 374h312v-33h-312v-308h372v-33h-409v700h409v-33h-372v-293zM276 934h30l134 -126h-45l-104 96l-104 -96h-45z" />
    <glyph glyph-name="Edieresis" unicode="&#xcb;" horiz-adv-x="552" 
d="M92 0zM129 374h312v-33h-312v-308h372v-33h-409v700h409v-33h-372v-293zM179 899h37v-62h-37v62zM375 899h35v-62h-35v62z" />
    <glyph glyph-name="Igrave" unicode="&#xcc;" horiz-adv-x="219" 
d="M0 0zM92 700h37v-700h-37v700zM-17 892l16 30l192 -96l-17 -27z" />
    <glyph glyph-name="Iacute" unicode="&#xcd;" horiz-adv-x="219" 
d="M15 0zM92 700h37v-700h-37v700zM15 826l192 96l16 -30l-191 -93z" />
    <glyph glyph-name="Icircumflex" unicode="&#xce;" horiz-adv-x="219" 
d="M0 0zM92 700h37v-700h-37v700zM89 934h30l134 -126h-45l-104 96l-104 -96h-45z" />
    <glyph glyph-name="Idieresis" unicode="&#xcf;" horiz-adv-x="219" 
d="M0 0zM92 700h37v-700h-37v700zM-7 899h37v-62h-37v62zM189 899h35v-62h-35v62z" />
    <glyph glyph-name="Eth" unicode="&#xd0;" horiz-adv-x="650" 
d="M94 334h-77v33h77v333h260q115 0 174.5 -92t59.5 -247q0 -120 -31.5 -201t-84.5 -120.5t-118 -39.5h-260v334zM354 34q94 0 145 90.5t51 237.5q0 103 -26.5 171.5t-70.5 100.5t-99 32h-224v-299h177v-33h-177v-300h224z" />
    <glyph glyph-name="Ntilde" unicode="&#xd1;" horiz-adv-x="665" 
d="M92 0zM572 700v-700h-83l-341 667h-19v-667h-37v700h85l338 -667h23v667h34zM331 863q-57 29 -73 29q-22 0 -57 -38l-13 -14l-9 30q20 23 42.5 38.5t39.5 15.5q18 0 80 -30q61 -30 70 -30q18 0 52 37l11 12l10 -29q-28 -34 -43 -42.5t-31 -8.5q-18 0 -79 30z" />
    <glyph glyph-name="Ograve" unicode="&#xd2;" horiz-adv-x="665" 
d="M66 0zM172.5 28q-58.5 37 -82.5 114t-24 205q0 126 25 205t83.5 118t158.5 39t158.5 -38.5t84 -118t25.5 -208.5q0 -132 -24.5 -208t-82.5 -110.5t-160 -34.5q-103 0 -161.5 37zM474 56.5q49 31.5 69 99.5t20 188q0 119 -21 190.5t-71 106t-138 34.5q-89 0 -139 -34
t-70.5 -104.5t-20.5 -189.5q0 -124 21 -193t70.5 -99t139.5 -30q91 0 140 31.5zM227 892l16 30l192 -96l-17 -27z" />
    <glyph glyph-name="Oacute" unicode="&#xd3;" horiz-adv-x="665" 
d="M66 0zM172.5 28q-58.5 37 -82.5 114t-24 205q0 126 25 205t83.5 118t158.5 39t158.5 -38.5t84 -118t25.5 -208.5q0 -132 -24.5 -208t-82.5 -110.5t-160 -34.5q-103 0 -161.5 37zM474 56.5q49 31.5 69 99.5t20 188q0 119 -21 190.5t-71 106t-138 34.5q-89 0 -139 -34
t-70.5 -104.5t-20.5 -189.5q0 -124 21 -193t70.5 -99t139.5 -30q91 0 140 31.5zM218 826l192 96l16 -30l-191 -93z" />
    <glyph glyph-name="Ocircumflex" unicode="&#xd4;" horiz-adv-x="665" 
d="M66 0zM172.5 28q-58.5 37 -82.5 114t-24 205q0 126 25 205t83.5 118t158.5 39t158.5 -38.5t84 -118t25.5 -208.5q0 -132 -24.5 -208t-82.5 -110.5t-160 -34.5q-103 0 -161.5 37zM474 56.5q49 31.5 69 99.5t20 188q0 119 -21 190.5t-71 106t-138 34.5q-89 0 -139 -34
t-70.5 -104.5t-20.5 -189.5q0 -124 21 -193t70.5 -99t139.5 -30q91 0 140 31.5zM317 934h30l134 -126h-45l-104 96l-104 -96h-45z" />
    <glyph glyph-name="Otilde" unicode="&#xd5;" horiz-adv-x="665" 
d="M66 0zM172.5 28q-58.5 37 -82.5 114t-24 205q0 126 25 205t83.5 118t158.5 39t158.5 -38.5t84 -118t25.5 -208.5q0 -132 -24.5 -208t-82.5 -110.5t-160 -34.5q-103 0 -161.5 37zM474 56.5q49 31.5 69 99.5t20 188q0 119 -21 190.5t-71 106t-138 34.5q-89 0 -139 -34
t-70.5 -104.5t-20.5 -189.5q0 -124 21 -193t70.5 -99t139.5 -30q91 0 140 31.5zM328 863q-57 29 -73 29q-22 0 -57 -38l-13 -14l-9 30q20 23 42.5 38.5t39.5 15.5q18 0 80 -30q61 -30 70 -30q18 0 52 37l11 12l10 -29q-28 -34 -43 -42.5t-31 -8.5q-18 0 -79 30z" />
    <glyph glyph-name="Odieresis" unicode="&#xd6;" horiz-adv-x="665" 
d="M66 0zM172.5 28q-58.5 37 -82.5 114t-24 205q0 126 25 205t83.5 118t158.5 39t158.5 -38.5t84 -118t25.5 -208.5q0 -132 -24.5 -208t-82.5 -110.5t-160 -34.5q-103 0 -161.5 37zM474 56.5q49 31.5 69 99.5t20 188q0 119 -21 190.5t-71 106t-138 34.5q-89 0 -139 -34
t-70.5 -104.5t-20.5 -189.5q0 -124 21 -193t70.5 -99t139.5 -30q91 0 140 31.5zM216 899h37v-62h-37v62zM412 899h35v-62h-35v62z" />
    <glyph glyph-name="multiply" unicode="&#xd7;" horiz-adv-x="561" 
d="M244 256l169 -170l-23 -23l-169 170l-170 -170l-23 23l170 170l-170 169l23 23l170 -169l169 169l23 -23z" />
    <glyph glyph-name="Oslash" unicode="&#xd8;" horiz-adv-x="665" 
d="M111 -98l59 127q-57 39 -80.5 114.5t-23.5 204.5q0 126 25 204.5t83.5 117.5t158.5 39q86 0 142 -27l53 110l30 -12l-55 -118q98 -75 98 -314q0 -132 -24 -209t-82 -112.5t-162 -35.5q-79 0 -136 22l-57 -122zM461 648q-44 27 -128 27q-91 0 -140.5 -33.5t-69.5 -109.5
t-20 -215q0 -202 76 -266zM475 56q49 31 68.5 104t19.5 209q0 195 -71 271l-279 -595q48 -20 120 -20q93 0 142 31z" />
    <glyph glyph-name="Ugrave" unicode="&#xd9;" horiz-adv-x="637" 
d="M88 0zM144.5 40q-56.5 49 -56.5 157v503h36v-505q0 -170 190 -170q101 0 151 40t50 130v505h34v-503q0 -108 -58 -157t-174 -49t-172.5 49zM210 892l16 30l192 -96l-17 -27z" />
    <glyph glyph-name="Uacute" unicode="&#xda;" horiz-adv-x="637" 
d="M88 0zM144.5 40q-56.5 49 -56.5 157v503h36v-505q0 -170 190 -170q101 0 151 40t50 130v505h34v-503q0 -108 -58 -157t-174 -49t-172.5 49zM215 826l192 96l16 -30l-191 -93z" />
    <glyph glyph-name="Ucircumflex" unicode="&#xdb;" horiz-adv-x="637" 
d="M88 0zM144.5 40q-56.5 49 -56.5 157v503h36v-505q0 -170 190 -170q101 0 151 40t50 130v505h34v-503q0 -108 -58 -157t-174 -49t-172.5 49zM302 934h30l134 -126h-45l-104 96l-104 -96h-45z" />
    <glyph glyph-name="Udieresis" unicode="&#xdc;" horiz-adv-x="637" 
d="M88 0zM144.5 40q-56.5 49 -56.5 157v503h36v-505q0 -170 190 -170q101 0 151 40t50 130v505h34v-503q0 -108 -58 -157t-174 -49t-172.5 49zM202 899h37v-62h-37v62zM398 899h35v-62h-35v62z" />
    <glyph glyph-name="Yacute" unicode="&#xdd;" horiz-adv-x="525" 
d="M17 0zM245 302l-228 398h43l203 -359l203 359h43l-228 -398v-302h-36v302zM189 826l192 96l16 -30l-191 -93z" />
    <glyph glyph-name="Thorn" unicode="&#xde;" horiz-adv-x="601" 
d="M92 700h37v-121h218q107 0 157.5 -52t50.5 -162q0 -112 -51.5 -170.5t-156.5 -58.5h-218v-136h-37v700zM346 170q86 0 128 48t42 148q0 94 -40 135.5t-130 41.5h-217v-373h217z" />
    <glyph glyph-name="germandbls" unicode="&#xdf;" horiz-adv-x="549" 
d="M209 -2l-19 3l3 34q80 -11 114 -11q89 0 125 36t36 109q0 44 -7 67.5t-30.5 43t-76.5 44.5q-45 23 -66.5 37.5t-29.5 27.5t-8 33q0 26 16 40.5t58 34.5q27 12 39.5 26t16 33t3.5 55q0 33 -10.5 53.5t-39.5 31t-83 10.5q-52 0 -81 -13.5t-42 -47.5t-13 -98v-547h-35v560
q0 68 17 106.5t54.5 55.5t101.5 17q92 0 130.5 -32t38.5 -104q0 -52 -17.5 -82.5t-54.5 -46.5q-35 -16 -48 -25.5t-13 -25.5q0 -5 -1 -8t-1 -4q0 -4 8 -9.5t26 -15.5l66 -41q67 -34 93.5 -67.5t26.5 -91.5q0 -104 -46 -149.5t-154 -45.5q-39 0 -97 7z" />
    <glyph glyph-name="agrave" unicode="&#xe0;" horiz-adv-x="494" 
d="M47 0zM81.5 29q-34.5 38 -34.5 105t33.5 102.5t105.5 45.5l190 19v51q0 62 -26 92.5t-71 30.5q-44 0 -77.5 -3t-125.5 -14l-3 33q104 18 189 18q77 0 113.5 -38.5t36.5 -118.5v-288q1 -15 21 -26.5t53 -15.5l-2 -31q-33 0 -61.5 12t-41.5 32q-100 -44 -202 -44
q-63 0 -97.5 38zM348 54l28 11v203l-186 -18q-55 -4 -79.5 -30.5t-24.5 -79.5q0 -116 94 -116q87 0 168 30zM133 701l16 30l192 -95l-15 -27z" />
    <glyph glyph-name="aacute" unicode="&#xe1;" horiz-adv-x="494" 
d="M47 0zM81.5 29q-34.5 38 -34.5 105t33.5 102.5t105.5 45.5l190 19v51q0 62 -26 92.5t-71 30.5q-44 0 -77.5 -3t-125.5 -14l-3 33q104 18 189 18q77 0 113.5 -38.5t36.5 -118.5v-288q1 -15 21 -26.5t53 -15.5l-2 -31q-33 0 -61.5 12t-41.5 32q-100 -44 -202 -44
q-63 0 -97.5 38zM348 54l28 11v203l-186 -18q-55 -4 -79.5 -30.5t-24.5 -79.5q0 -116 94 -116q87 0 168 30zM133 636l192 95l17 -30l-194 -92z" />
    <glyph glyph-name="acircumflex" unicode="&#xe2;" horiz-adv-x="494" 
d="M47 0zM81.5 29q-34.5 38 -34.5 105t33.5 102.5t105.5 45.5l190 19v51q0 62 -26 92.5t-71 30.5q-44 0 -77.5 -3t-125.5 -14l-3 33q104 18 189 18q77 0 113.5 -38.5t36.5 -118.5v-288q1 -15 21 -26.5t53 -15.5l-2 -31q-33 0 -61.5 12t-41.5 32q-100 -44 -202 -44
q-63 0 -97.5 38zM348 54l28 11v203l-186 -18q-55 -4 -79.5 -30.5t-24.5 -79.5q0 -116 94 -116q87 0 168 30zM224 733h29l122 -133h-43l-91 100l-95 -100h-43z" />
    <glyph glyph-name="atilde" unicode="&#xe3;" horiz-adv-x="494" 
d="M47 0zM81.5 29q-34.5 38 -34.5 105t33.5 102.5t105.5 45.5l190 19v51q0 62 -26 92.5t-71 30.5q-44 0 -77.5 -3t-125.5 -14l-3 33q104 18 189 18q77 0 113.5 -38.5t36.5 -118.5v-288q1 -15 21 -26.5t53 -15.5l-2 -31q-33 0 -61.5 12t-41.5 32q-100 -44 -202 -44
q-63 0 -97.5 38zM348 54l28 11v203l-186 -18q-55 -4 -79.5 -30.5t-24.5 -79.5q0 -116 94 -116q87 0 168 30zM245 658q-58 26 -69 26q-20 0 -60 -34l-13 -12l-10 30q27 27 44.5 37t37.5 10q18 0 76 -26q59 -27 68 -27q15 0 52 32l13 9l9 -29q-28 -29 -42 -36.5t-32 -7.5
q-21 0 -74 28z" />
    <glyph glyph-name="adieresis" unicode="&#xe4;" horiz-adv-x="494" 
d="M47 0zM81.5 29q-34.5 38 -34.5 105t33.5 102.5t105.5 45.5l190 19v51q0 62 -26 92.5t-71 30.5q-44 0 -77.5 -3t-125.5 -14l-3 33q104 18 189 18q77 0 113.5 -38.5t36.5 -118.5v-288q1 -15 21 -26.5t53 -15.5l-2 -31q-33 0 -61.5 12t-41.5 32q-100 -44 -202 -44
q-63 0 -97.5 38zM348 54l28 11v203l-186 -18q-55 -4 -79.5 -30.5t-24.5 -79.5q0 -116 94 -116q87 0 168 30zM132 700h35v-62h-35v62zM321 700h37v-62h-37v62z" />
    <glyph glyph-name="aring" unicode="&#xe5;" horiz-adv-x="494" 
d="M47 0zM81.5 29q-34.5 38 -34.5 105t33.5 102.5t105.5 45.5l190 19v51q0 62 -26 92.5t-71 30.5q-44 0 -77.5 -3t-125.5 -14l-3 33q104 18 189 18q77 0 113.5 -38.5t36.5 -118.5v-288q1 -15 21 -26.5t53 -15.5l-2 -31q-33 0 -61.5 12t-41.5 32q-100 -44 -202 -44
q-63 0 -97.5 38zM348 54l28 11v203l-186 -18q-55 -4 -79.5 -30.5t-24.5 -79.5q0 -116 94 -116q87 0 168 30zM184 582q-26 28 -26 69q0 39 26 66.5t64 27.5t64 -27.5t26 -66.5q0 -41 -26 -69t-64 -28t-64 28zM292 605q18 19 18 46q0 26 -18.5 45t-43.5 19t-43.5 -19
t-18.5 -45q0 -27 18 -46t44 -19t44 19z" />
    <glyph glyph-name="ae" unicode="&#xe6;" horiz-adv-x="817" 
d="M79 28.5q-32 37.5 -32 112.5q0 52 16.5 79.5t55.5 42t114 23.5l143 15v52q0 63 -27 92.5t-81 29.5q-55 0 -161 -8l-30 -2l-2 34q103 10 186 10q117 0 144 -97q45 97 166 97q102 0 148.5 -57t46.5 -183v-34h-354q-1 -107 34 -159.5t108 -52.5q63 0 161 7l29 2l2 -33
q-117 -8 -197 -8q-84 0 -130 58l-38 -16q-90 -42 -211 -42q-59 0 -91 37.5zM729 268q0 112 -36 160.5t-115 48.5q-82 0 -124 -50.5t-42 -158.5h317zM259.5 33q45.5 10 79 23t34.5 19v193l-183 -18q-55 -5 -79.5 -31.5t-24.5 -80.5q0 -115 91 -115q37 0 82.5 10z" />
    <glyph glyph-name="ccedilla" unicode="&#xe7;" horiz-adv-x="429" 
d="M325 -71.5q23 -15.5 23 -54.5q0 -38 -19.5 -56.5t-61.5 -18.5q-46 0 -70 3l-11 1l2 28q60 -4 78 -4q48 0 48 46q0 42 -48 42h-54v79q-59 7 -92 36t-46.5 83t-13.5 140q0 70 9.5 122.5t50 93.5t123.5 41q33 0 61.5 -2t81.5 -10l-3 -31q-76 10 -123 10q-63 0 -98 -21
t-50 -70.5t-15 -139.5q0 -84 14 -131.5t50.5 -69.5t104.5 -22l119 10l2 -32q-93 -10 -129 -10h-13v-48q57 1 80 -14.5z" />
    <glyph glyph-name="egrave" unicode="&#xe8;" horiz-adv-x="502" 
d="M59 0zM104 50.5q-45 59.5 -45 185.5q0 140 48.5 206.5t153.5 66.5q96 0 142 -58t46 -182v-33h-354q-1 -79 15 -124.5t54 -67t107 -21.5q26 0 61.5 2t67.5 4l30 3l2 -33q-122 -8 -172 -8q-111 0 -156 59.5zM412 268q0 111 -36 160t-114 49q-83 0 -125 -51t-43 -158h318z
M129 701l16 30l192 -95l-15 -27z" />
    <glyph glyph-name="eacute" unicode="&#xe9;" horiz-adv-x="502" 
d="M59 0zM104 50.5q-45 59.5 -45 185.5q0 140 48.5 206.5t153.5 66.5q96 0 142 -58t46 -182v-33h-354q-1 -79 15 -124.5t54 -67t107 -21.5q26 0 61.5 2t67.5 4l30 3l2 -33q-122 -8 -172 -8q-111 0 -156 59.5zM412 268q0 111 -36 160t-114 49q-83 0 -125 -51t-43 -158h318z
M172 636l192 95l17 -30l-194 -92z" />
    <glyph glyph-name="ecircumflex" unicode="&#xea;" horiz-adv-x="502" 
d="M59 0zM104 50.5q-45 59.5 -45 185.5q0 140 48.5 206.5t153.5 66.5q96 0 142 -58t46 -182v-33h-354q-1 -79 15 -124.5t54 -67t107 -21.5q26 0 61.5 2t67.5 4l30 3l2 -33q-122 -8 -172 -8q-111 0 -156 59.5zM412 268q0 111 -36 160t-114 49q-83 0 -125 -51t-43 -158h318z
M248 733h29l122 -133h-43l-91 100l-95 -100h-43z" />
    <glyph glyph-name="edieresis" unicode="&#xeb;" horiz-adv-x="502" 
d="M59 0zM104 50.5q-45 59.5 -45 185.5q0 140 48.5 206.5t153.5 66.5q96 0 142 -58t46 -182v-33h-354q-1 -79 15 -124.5t54 -67t107 -21.5q26 0 61.5 2t67.5 4l30 3l2 -33q-122 -8 -172 -8q-111 0 -156 59.5zM412 268q0 111 -36 160t-114 49q-83 0 -125 -51t-43 -158h318z
M144 700h35v-62h-35v62zM333 700h37v-62h-37v62z" />
    <glyph glyph-name="igrave" unicode="&#xec;" horiz-adv-x="191" 
d="M0 0zM79 500h34v-500h-34v500zM-60 701l16 30l192 -95l-15 -27z" />
    <glyph glyph-name="iacute" unicode="&#xed;" horiz-adv-x="191" 
d="M43 0zM79 500h34v-500h-34v500zM43 636l192 95l17 -30l-194 -92z" />
    <glyph glyph-name="icircumflex" unicode="&#xee;" horiz-adv-x="191" 
d="M0 0zM79 500h34v-500h-34v500zM81 733h29l122 -133h-43l-91 100l-95 -100h-43z" />
    <glyph glyph-name="idieresis" unicode="&#xef;" horiz-adv-x="191" 
d="M0 0zM79 500h34v-500h-34v500zM-20 700h35v-62h-35v62zM169 700h37v-62h-37v62z" />
    <glyph glyph-name="eth" unicode="&#xf0;" horiz-adv-x="535" 
d="M102.5 49.5q-57.5 58.5 -57.5 156.5q0 102 55 160.5t149 58.5q68 0 158 -33l31 -11q-3 77 -46.5 140.5t-122.5 111.5l-118 -78l-19 28l108 73q-64 31 -135 52l13 31q87 -27 149 -64l105 70l20 -27l-92 -63q175 -103 175 -302q0 -133 -22 -212t-68.5 -114.5t-124.5 -35.5
q-100 0 -157.5 58.5zM368 54q36 30 53 99.5t18 192.5q-120 46 -182 46q-85 0 -130 -48.5t-45 -137.5q0 -84 47 -133t141 -49q62 0 98 30z" />
    <glyph glyph-name="ntilde" unicode="&#xf1;" horiz-adv-x="526" 
d="M79 0zM79 500h34v-40q51 27 93.5 38t87.5 11q65 0 98.5 -22t47 -75t13.5 -153v-259h-34v259q0 86 -9.5 132t-35 66t-74.5 20q-45 0 -91.5 -12t-70.5 -25l-24 -13v-427h-35v500zM277 658q-58 26 -69 26q-20 0 -60 -34l-13 -12l-10 30q27 27 44.5 37t37.5 10q18 0 76 -26
q59 -27 68 -27q15 0 52 32l13 9l9 -29q-28 -29 -42 -36.5t-32 -7.5q-21 0 -74 28z" />
    <glyph glyph-name="ograve" unicode="&#xf2;" horiz-adv-x="525" 
d="M59 0zM135.5 14.5q-43.5 23.5 -60 77t-16.5 152.5q0 104 18 160.5t61.5 80.5t124.5 24t124.5 -24.5t61 -81t17.5 -159.5q0 -99 -16 -152t-59.5 -77t-127.5 -24t-127.5 23.5zM369.5 44.5q34.5 20.5 46.5 66t12 133.5q0 95 -13 143.5t-47.5 68.5t-103.5 20t-104.5 -20
t-49 -69t-13.5 -143q0 -87 12.5 -133t48 -66.5t106.5 -20.5t105.5 20.5zM153 701l16 30l192 -95l-15 -27z" />
    <glyph glyph-name="oacute" unicode="&#xf3;" horiz-adv-x="525" 
d="M59 0zM135.5 14.5q-43.5 23.5 -60 77t-16.5 152.5q0 104 18 160.5t61.5 80.5t124.5 24t124.5 -24.5t61 -81t17.5 -159.5q0 -99 -16 -152t-59.5 -77t-127.5 -24t-127.5 23.5zM369.5 44.5q34.5 20.5 46.5 66t12 133.5q0 95 -13 143.5t-47.5 68.5t-103.5 20t-104.5 -20
t-49 -69t-13.5 -143q0 -87 12.5 -133t48 -66.5t106.5 -20.5t105.5 20.5zM179 636l192 95l17 -30l-194 -92z" />
    <glyph glyph-name="ocircumflex" unicode="&#xf4;" horiz-adv-x="525" 
d="M59 0zM135.5 14.5q-43.5 23.5 -60 77t-16.5 152.5q0 104 18 160.5t61.5 80.5t124.5 24t124.5 -24.5t61 -81t17.5 -159.5q0 -99 -16 -152t-59.5 -77t-127.5 -24t-127.5 23.5zM369.5 44.5q34.5 20.5 46.5 66t12 133.5q0 95 -13 143.5t-47.5 68.5t-103.5 20t-104.5 -20
t-49 -69t-13.5 -143q0 -87 12.5 -133t48 -66.5t106.5 -20.5t105.5 20.5zM248 733h29l122 -133h-43l-91 100l-95 -100h-43z" />
    <glyph glyph-name="otilde" unicode="&#xf5;" horiz-adv-x="525" 
d="M59 0zM135.5 14.5q-43.5 23.5 -60 77t-16.5 152.5q0 104 18 160.5t61.5 80.5t124.5 24t124.5 -24.5t61 -81t17.5 -159.5q0 -99 -16 -152t-59.5 -77t-127.5 -24t-127.5 23.5zM369.5 44.5q34.5 20.5 46.5 66t12 133.5q0 95 -13 143.5t-47.5 68.5t-103.5 20t-104.5 -20
t-49 -69t-13.5 -143q0 -87 12.5 -133t48 -66.5t106.5 -20.5t105.5 20.5zM267 658q-58 26 -69 26q-20 0 -60 -34l-13 -12l-10 30q27 27 44.5 37t37.5 10q18 0 76 -26q59 -27 68 -27q15 0 52 32l13 9l9 -29q-28 -29 -42 -36.5t-32 -7.5q-21 0 -74 28z" />
    <glyph glyph-name="odieresis" unicode="&#xf6;" horiz-adv-x="525" 
d="M59 0zM135.5 14.5q-43.5 23.5 -60 77t-16.5 152.5q0 104 18 160.5t61.5 80.5t124.5 24t124.5 -24.5t61 -81t17.5 -159.5q0 -99 -16 -152t-59.5 -77t-127.5 -24t-127.5 23.5zM369.5 44.5q34.5 20.5 46.5 66t12 133.5q0 95 -13 143.5t-47.5 68.5t-103.5 20t-104.5 -20
t-49 -69t-13.5 -143q0 -87 12.5 -133t48 -66.5t106.5 -20.5t105.5 20.5zM146 700h35v-62h-35v62zM335 700h37v-62h-37v62z" />
    <glyph glyph-name="divide" unicode="&#xf7;" 
d="M261 686h37v-81h-37v81zM167 383h225v-42h-225v42zM261 119h37v-80h-37v80z" />
    <glyph glyph-name="oslash" unicode="&#xf8;" horiz-adv-x="525" 
d="M104 -105l44 113q-50 25 -69.5 82.5t-19.5 168.5q0 93 20 147t64 78.5t120 24.5q43 0 86 -10l45 106l29 -11l-44 -108q87 -43 87 -227q0 -104 -16 -160.5t-59.5 -82t-127.5 -25.5q-42 0 -85 10l-44 -116zM337 467l-74 9q-63 0 -99 -20t-51.5 -61.5t-15.5 -111.5
q0 -73 3.5 -118t17 -81t41.5 -55zM369.5 44.5q34.5 20.5 46.5 71.5t12 156q0 149 -60 190l-177 -431q30 -7 72 -7q72 0 106.5 20.5z" />
    <glyph glyph-name="ugrave" unicode="&#xf9;" horiz-adv-x="516" 
d="M74 0zM133 12.5q-33 21.5 -46 74t-13 153.5v260h35v-257q0 -89 9.5 -135t35.5 -65.5t77 -19.5q48 0 91.5 13.5t79.5 36.5v427h36v-500h-37v40q-39 -25 -78.5 -37t-91.5 -12q-65 0 -98 21.5zM125 701l16 30l192 -95l-15 -27z" />
    <glyph glyph-name="uacute" unicode="&#xfa;" horiz-adv-x="516" 
d="M74 0zM133 12.5q-33 21.5 -46 74t-13 153.5v260h35v-257q0 -89 9.5 -135t35.5 -65.5t77 -19.5q48 0 91.5 13.5t79.5 36.5v427h36v-500h-37v40q-39 -25 -78.5 -37t-91.5 -12q-65 0 -98 21.5zM172 636l192 95l17 -30l-194 -92z" />
    <glyph glyph-name="ucircumflex" unicode="&#xfb;" horiz-adv-x="516" 
d="M74 0zM133 12.5q-33 21.5 -46 74t-13 153.5v260h35v-257q0 -89 9.5 -135t35.5 -65.5t77 -19.5q48 0 91.5 13.5t79.5 36.5v427h36v-500h-37v40q-39 -25 -78.5 -37t-91.5 -12q-65 0 -98 21.5zM241 733h29l122 -133h-43l-91 100l-95 -100h-43z" />
    <glyph glyph-name="udieresis" unicode="&#xfc;" horiz-adv-x="516" 
d="M74 0zM133 12.5q-33 21.5 -46 74t-13 153.5v260h35v-257q0 -89 9.5 -135t35.5 -65.5t77 -19.5q48 0 91.5 13.5t79.5 36.5v427h36v-500h-37v40q-39 -25 -78.5 -37t-91.5 -12q-65 0 -98 21.5zM149 700h35v-62h-35v62zM338 700h37v-62h-37v62z" />
    <glyph glyph-name="yacute" unicode="&#xfd;" horiz-adv-x="472" 
d="M31 0zM246 0h-60l-155 500h37l148 -468h39l150 468h37l-230 -730h-37zM175 636l192 95l17 -30l-194 -92z" />
    <glyph glyph-name="thorn" unicode="&#xfe;" horiz-adv-x="516" 
d="M79 730h35v-262q84 41 172 41q66 0 102.5 -24.5t52 -79.5t15.5 -151q0 -97 -20 -153.5t-69.5 -83t-139.5 -26.5l-113 7v-228h-35v960zM346 45q41 23 56.5 71.5t15.5 133.5q0 89 -11.5 137.5t-39.5 69t-81 20.5q-71 0 -149 -30l-23 -10v-409q78 -6 113 -6q78 0 119 23z
" />
    <glyph glyph-name="ydieresis" unicode="&#xff;" horiz-adv-x="472" 
d="M31 0zM246 0h-60l-155 500h37l148 -468h39l150 468h37l-230 -730h-37zM121 700h35v-62h-35v62zM310 700h37v-62h-37v62z" />
    <glyph glyph-name="Amacron" unicode="&#x100;" horiz-adv-x="592" 
d="M29 0zM463 215h-334l-66 -215h-34l214 700h33l6 5l-2 -5h32l-2 5l6 -5h33l214 -700h-34zM452 250l-2 7l1 -1l-129 410h-52l-128 -409l-2 -7h312zM152 863h287v-31h-287v31z" />
    <glyph glyph-name="amacron" unicode="&#x101;" horiz-adv-x="494" 
d="M47 0zM81.5 29q-34.5 38 -34.5 105t33.5 102.5t105.5 45.5l190 19v51q0 62 -26 92.5t-71 30.5q-44 0 -77.5 -3t-125.5 -14l-3 33q104 18 189 18q77 0 113.5 -38.5t36.5 -118.5v-288q1 -15 21 -26.5t53 -15.5l-2 -31q-33 0 -61.5 12t-41.5 32q-100 -44 -202 -44
q-63 0 -97.5 38zM348 54l28 11v203l-186 -18q-55 -4 -79.5 -30.5t-24.5 -79.5q0 -116 94 -116q87 0 168 30zM115 674h267v-32h-267v32z" />
    <glyph glyph-name="Abreve" unicode="&#x102;" horiz-adv-x="592" 
d="M29 0zM463 215h-334l-66 -215h-34l214 700h33l6 5l-2 -5h32l-2 5l6 -5h33l214 -700h-34zM452 250l-2 7l1 -1l-129 410h-52l-128 -409l-2 -7h312zM197 838.5q-40 32.5 -39 84.5h34q-1 -37 30 -62t75 -25q43 0 72.5 24.5t28.5 62.5h36q1 -52 -39 -84.5t-99 -32.5t-99 32.5z
" />
    <glyph glyph-name="abreve" unicode="&#x103;" horiz-adv-x="497" 
d="M152.5 631.5q-39.5 36.5 -38.5 91.5h36q1 -43 28 -69.5t74 -26.5t75.5 27t27.5 69h35q1 -55 -38 -91.5t-99 -36.5q-61 0 -100.5 36.5zM80.5 28.5q-33.5 37.5 -33.5 105.5t34 103.5t105 43.5l190 20v52q0 63 -27 92.5t-85 29.5q-77 0 -189 -17l-2 33l30 5q85 13 163 13
q74 0 110 -39t36 -118v-286q1 -14 21.5 -26t51.5 -16v-33q-31 0 -61.5 11.5t-42.5 29.5l-26 -11q-25 -9 -80 -19.5t-100 -10.5q-61 0 -94.5 37.5zM376 63v205l-186 -18q-104 -10 -104 -112q0 -54 24 -84.5t67 -30.5q98 0 199 40z" />
    <glyph glyph-name="Aogonek" unicode="&#x104;" horiz-adv-x="592" 
d="M589 -192q-34 -7 -68 -7q-31 0 -54 21.5t-23 50.5q0 26 19 56.5t44 56.5l21 19l-65 210h-334l-66 -215h-34l214 700h33l6 5l-2 -5h32l-2 5l6 -5h33l214 -700h-2q-40 -44 -59 -72.5t-19 -44.5q0 -20 14 -34.5t33 -14.5l55 8zM452 250l-2 7l1 -1l-129 410h-52l-128 -409
l-2 -7h312z" />
    <glyph glyph-name="aogonek" unicode="&#x105;" horiz-adv-x="494" 
d="M487 -192q-34 -7 -68 -7q-31 0 -54 21.5t-23 50.5q0 26 19 56.5t44 56.5l18 17q-29 11 -42 32q-100 -44 -202 -44q-63 0 -97.5 38t-34.5 105t33.5 102.5t105.5 45.5l190 19v51q0 62 -26 92.5t-71 30.5q-44 0 -77.5 -3t-125.5 -14l-3 33q104 18 189 18q77 0 113.5 -38.5
t36.5 -118.5v-288q1 -15 21 -26.5t53 -15.5l-2 -31q-16 0 -30 3q-73 -82 -73 -111q0 -20 14 -34.5t33 -14.5l55 8zM376 268l-186 -18q-55 -4 -79.5 -30.5t-24.5 -79.5q0 -116 94 -116q87 0 168 30l28 11v203z" />
    <glyph glyph-name="Cacute" unicode="&#x106;" horiz-adv-x="545" 
d="M67 0zM164.5 32q-56.5 41 -77 118t-20.5 202q0 117 19 193t75.5 120t163.5 44q74 0 176 -19l-2 -35q-105 20 -183 20q-88 0 -132.5 -32.5t-61 -105.5t-16.5 -212q0 -105 16.5 -168t65.5 -97.5t145 -34.5q67 0 166 21l3 -35q-105 -20 -176 -20q-105 0 -161.5 41zM203 826
l192 96l16 -30l-191 -93z" />
    <glyph glyph-name="cacute" unicode="&#x107;" horiz-adv-x="429" 
d="M60 0zM137.5 17.5q-42.5 26.5 -60 82.5t-17.5 153q0 70 9.5 122.5t50 93.5t123.5 41q33 0 61.5 -2t81.5 -10l-3 -31q-76 10 -123 10q-63 0 -98 -21t-50 -70.5t-15 -139.5q0 -84 14 -131.5t50.5 -69.5t104.5 -22l119 10l2 -32q-93 -10 -129 -10q-78 0 -120.5 26.5z
M145 636l192 95l17 -30l-194 -92z" />
    <glyph glyph-name="Ccircumflex" unicode="&#x108;" horiz-adv-x="545" 
d="M67 0zM164.5 32q-56.5 41 -77 118t-20.5 202q0 117 19 193t75.5 120t163.5 44q74 0 176 -19l-2 -35q-105 20 -183 20q-88 0 -132.5 -32.5t-61 -105.5t-16.5 -212q0 -105 16.5 -168t65.5 -97.5t145 -34.5q67 0 166 21l3 -35q-105 -20 -176 -20q-105 0 -161.5 41zM303 934
h30l134 -126h-45l-104 96l-104 -96h-45z" />
    <glyph glyph-name="ccircumflex" unicode="&#x109;" horiz-adv-x="429" 
d="M60 0zM137.5 17.5q-42.5 26.5 -60 82.5t-17.5 153q0 70 9.5 122.5t50 93.5t123.5 41q33 0 61.5 -2t81.5 -10l-3 -31q-76 10 -123 10q-63 0 -98 -21t-50 -70.5t-15 -139.5q0 -84 14 -131.5t50.5 -69.5t104.5 -22l119 10l2 -32q-93 -10 -129 -10q-78 0 -120.5 26.5z
M223 733h29l122 -133h-43l-91 100l-95 -100h-43z" />
    <glyph glyph-name="Cdotaccent" unicode="&#x10a;" horiz-adv-x="545" 
d="M67 0zM164.5 32q-56.5 41 -77 118t-20.5 202q0 117 19 193t75.5 120t163.5 44q74 0 176 -19l-2 -35q-105 20 -183 20q-88 0 -132.5 -32.5t-61 -105.5t-16.5 -212q0 -105 16.5 -168t65.5 -97.5t145 -34.5q67 0 166 21l3 -35q-105 -20 -176 -20q-105 0 -161.5 41zM279 884
h34v-55h-34v55z" />
    <glyph glyph-name="cdotaccent" unicode="&#x10b;" horiz-adv-x="429" 
d="M60 0zM137.5 17.5q-42.5 26.5 -60 82.5t-17.5 153q0 70 9.5 122.5t50 93.5t123.5 41q33 0 61.5 -2t81.5 -10l-3 -31q-76 10 -123 10q-63 0 -98 -21t-50 -70.5t-15 -139.5q0 -84 14 -131.5t50.5 -69.5t104.5 -22l119 10l2 -32q-93 -10 -129 -10q-78 0 -120.5 26.5z
M230 699h34v-55h-34v55z" />
    <glyph glyph-name="Ccaron" unicode="&#x10c;" horiz-adv-x="545" 
d="M67 0zM164.5 32q-56.5 41 -77 118t-20.5 202q0 117 19 193t75.5 120t163.5 44q74 0 176 -19l-2 -35q-105 20 -183 20q-88 0 -132.5 -32.5t-61 -105.5t-16.5 -212q0 -105 16.5 -168t65.5 -97.5t145 -34.5q67 0 166 21l3 -35q-105 -20 -176 -20q-105 0 -161.5 41zM151 934
h46l103 -96l104 96h46l-134 -126h-31z" />
    <glyph glyph-name="ccaron" unicode="&#x10d;" horiz-adv-x="429" 
d="M60 0zM137.5 17.5q-42.5 26.5 -60 82.5t-17.5 153q0 70 9.5 122.5t50 93.5t123.5 41q33 0 61.5 -2t81.5 -10l-3 -31q-76 10 -123 10q-63 0 -98 -21t-50 -70.5t-15 -139.5q0 -84 14 -131.5t50.5 -69.5t104.5 -22l119 10l2 -32q-93 -10 -129 -10q-78 0 -120.5 26.5z
M146 733l94 -101l91 101h43l-121 -133h-29l-121 133h43z" />
    <glyph glyph-name="Dcaron" unicode="&#x10e;" horiz-adv-x="650" 
d="M92 0zM539 599.5q46 -100.5 46 -228.5q0 -189 -64.5 -280t-169.5 -91h-259v700h259q142 0 188 -100.5zM450.5 69.5q44.5 36.5 71 108.5t26.5 176q0 157 -54 235t-143 78h-222v-634h222q55 0 99.5 36.5zM138 934h46l103 -96l104 96h46l-134 -126h-31z" />
    <glyph glyph-name="dcaron" unicode="&#x10f;" horiz-adv-x="516" 
d="M58 0zM97 51.5q-39 60.5 -39 188.5q0 97 21.5 155.5t69.5 86t129 27.5q30 0 64 -3.5t59 -9.5v234h34v-730h-34v43q-79 -52 -173 -52q-92 0 -131 60.5zM312.5 36q43.5 13 64.5 26l24 13v389q-73 14 -129 14q-67 0 -105.5 -24.5t-54.5 -74t-16 -131.5q0 -112 30 -168.5
t104 -56.5q39 0 82.5 13zM536 686h37l-47 -189h-27z" />
    <glyph glyph-name="Dcroat" unicode="&#x110;" horiz-adv-x="650" 
d="M94 334h-77v33h77v333h260q115 0 174.5 -92t59.5 -247q0 -120 -31.5 -201t-84.5 -120.5t-118 -39.5h-260v334zM354 34q94 0 145 90.5t51 237.5q0 103 -26.5 171.5t-70.5 100.5t-99 32h-224v-299h177v-33h-177v-300h224z" />
    <glyph glyph-name="dcroat" unicode="&#x111;" horiz-adv-x="515" 
d="M184 -6q-17 3 -42 16q-27 14 -43 39t-28 74q-13 48 -13 119q0 139 48 203t163 64q57 0 132 -12v125h-173v32h173v76h35v-76h59v-32h-59v-622h-35v42q-29 -19 -81 -35t-84 -16q-35 0 -52 3zM307.5 35.5q43.5 12.5 69.5 26.5l24 13v390q-78 12 -132 12q-67 0 -105 -25
t-53.5 -75.5t-15.5 -134.5q0 -144 46 -186q21 -20 40.5 -26.5t52.5 -6.5q30 0 73.5 12.5z" />
    <glyph glyph-name="Emacron" unicode="&#x112;" horiz-adv-x="552" 
d="M92 0zM129 374h312v-33h-312v-308h372v-33h-409v700h409v-33h-372v-293zM153 863h287v-31h-287v31z" />
    <glyph glyph-name="emacron" unicode="&#x113;" horiz-adv-x="502" 
d="M59 0zM104 50.5q-45 59.5 -45 185.5q0 140 48.5 206.5t153.5 66.5q96 0 142 -58t46 -182v-33h-354q-1 -79 15 -124.5t54 -67t107 -21.5q26 0 61.5 2t67.5 4l30 3l2 -33q-122 -8 -172 -8q-111 0 -156 59.5zM412 268q0 111 -36 160t-114 49q-83 0 -125 -51t-43 -158h318z
M130 674h267v-32h-267v32z" />
    <glyph glyph-name="Ebreve" unicode="&#x114;" horiz-adv-x="552" 
d="M92 0zM129 374h312v-33h-312v-308h372v-33h-409v700h409v-33h-372v-293zM208 838.5q-40 32.5 -39 84.5h34q-1 -37 30 -62t75 -25q43 0 72.5 24.5t28.5 62.5h36q1 -52 -39 -84.5t-99 -32.5t-99 32.5z" />
    <glyph glyph-name="ebreve" unicode="&#x115;" horiz-adv-x="502" 
d="M59 0zM155 631q-39 36 -38 92h34q2 -44 29.5 -70t75.5 -26q46 0 74.5 27t26.5 69h36q1 -56 -37.5 -92t-99.5 -36q-62 0 -101 36zM104 50.5q-45 59.5 -45 185.5q0 140 48.5 206.5t153.5 66.5q96 0 142 -58t46 -182v-33h-354q-1 -79 15 -124.5t54 -67t107 -21.5
q26 0 61.5 2t67.5 4l30 3l2 -33q-122 -8 -172 -8q-111 0 -156 59.5zM412 268q0 111 -36 160t-114 49q-83 0 -125 -51t-43 -158h318z" />
    <glyph glyph-name="Edotaccent" unicode="&#x116;" horiz-adv-x="552" 
d="M92 0zM129 374h312v-33h-312v-308h372v-33h-409v700h409v-33h-372v-293zM278 879h34v-55h-34v55z" />
    <glyph glyph-name="edotaccent" unicode="&#x117;" horiz-adv-x="502" 
d="M59 0zM104 50.5q-45 59.5 -45 185.5q0 140 48.5 206.5t153.5 66.5q96 0 142 -58t46 -182v-33h-354q-1 -79 15 -124.5t54 -67t107 -21.5q26 0 61.5 2t67.5 4l30 3l2 -33q-122 -8 -172 -8q-111 0 -156 59.5zM412 268q0 111 -36 160t-114 49q-83 0 -125 -51t-43 -158h318z
M235 699h34v-55h-34v55z" />
    <glyph glyph-name="Eogonek" unicode="&#x118;" horiz-adv-x="552" 
d="M129 374h312v-33h-312v-308h372v-33h-31q-40 -44 -59 -72.5t-19 -44.5q0 -20 14 -34.5t33 -14.5l55 8l4 -34q-34 -7 -68 -7q-31 0 -54 21.5t-23 50.5q0 26 19 56.5t44 56.5l15 14h-339v700h409v-33h-372v-293z" />
    <glyph glyph-name="eogonek" unicode="&#x119;" horiz-adv-x="502" 
d="M95 236q-1 -79 15 -124.5t54 -67t107 -21.5q26 0 61.5 2t67.5 4l30 3l2 -33l-17 -1q-39 -43 -57.5 -71t-18.5 -44q0 -20 14 -34.5t33 -14.5l55 8l4 -34q-34 -7 -68 -7q-31 0 -54 21.5t-23 50.5q0 26 19 56.5t44 56.5l10 9l-33 -1q-52 -3 -80 -3q-111 0 -156 59.5
t-45 185.5q0 140 48.5 206.5t153.5 66.5q96 0 142 -58t46 -182v-33h-354zM412 268q0 111 -36 160t-114 49q-83 0 -125 -51t-43 -158h318z" />
    <glyph glyph-name="Ecaron" unicode="&#x11a;" horiz-adv-x="552" 
d="M92 0zM129 374h312v-33h-312v-308h372v-33h-409v700h409v-33h-372v-293zM148 934h46l103 -96l104 96h46l-134 -126h-31z" />
    <glyph glyph-name="ecaron" unicode="&#x11b;" horiz-adv-x="502" 
d="M59 0zM104 50.5q-45 59.5 -45 185.5q0 140 48.5 206.5t153.5 66.5q96 0 142 -58t46 -182v-33h-354q-1 -79 15 -124.5t54 -67t107 -21.5q26 0 61.5 2t67.5 4l30 3l2 -33q-122 -8 -172 -8q-111 0 -156 59.5zM412 268q0 111 -36 160t-114 49q-83 0 -125 -51t-43 -158h318z
M160 733l94 -101l91 101h43l-121 -133h-29l-121 133h43z" />
    <glyph glyph-name="Gcircumflex" unicode="&#x11c;" horiz-adv-x="619" 
d="M65 0zM173 30q-57 39 -82.5 117t-25.5 201q0 124 24.5 202.5t81.5 118.5t155 40q90 0 188 -20l33 -5l-3 -35q-130 26 -227 26q-73 0 -119.5 -29t-70 -97t-23.5 -186q0 -123 20 -196t68.5 -107.5t135.5 -34.5q45 0 85.5 4.5t97.5 15.5v267h-151v35h187v-331
q-113 -25 -221 -25q-96 0 -153 39zM303 934h30l134 -126h-45l-104 96l-104 -96h-45z" />
    <glyph glyph-name="gcircumflex" unicode="&#x11d;" horiz-adv-x="501" 
d="M59 0zM130 -222q-41 16 -56 48t-15 88q0 36 7.5 56.5t22 34t53.5 43.5q-11 7 -16.5 24.5t-5.5 36.5q0 12 5.5 27t25.5 55q-86 25 -86 152q0 85 41 126t134 41q49 0 102 -13l140 3v-35l-109 -1q20 -14 30.5 -45.5t10.5 -76.5q0 -88 -43 -125.5t-138 -37.5q-32 0 -55 4
l-8 -20q-7 -17 -11 -30t-4 -25q0 -30 21.5 -40t63.5 -10l69 1q54 0 88 -11t52.5 -40.5t18.5 -85.5t-20 -90.5t-67.5 -52t-130.5 -17.5q-79 0 -120 16zM346 240.5q31 29.5 31 104.5q0 74 -30.5 103.5t-105.5 29.5q-77 0 -109 -30.5t-32 -104.5t31.5 -103t107.5 -29t107 29.5z
M361 -194.5q38 12.5 54.5 41t16.5 78.5q0 42 -10.5 63t-40.5 30t-92 8l-120 4q-33 -22 -48 -36.5t-21 -31.5t-6 -46q0 -48 14.5 -74.5t48.5 -37.5t98 -11q68 0 106 12.5zM240 733h29l122 -133h-43l-91 100l-95 -100h-43z" />
    <glyph glyph-name="Gbreve" unicode="&#x11e;" horiz-adv-x="619" 
d="M65 0zM173 30q-57 39 -82.5 117t-25.5 201q0 124 24.5 202.5t81.5 118.5t155 40q90 0 188 -20l33 -5l-3 -35q-130 26 -227 26q-73 0 -119.5 -29t-70 -97t-23.5 -186q0 -123 20 -196t68.5 -107.5t135.5 -34.5q45 0 85.5 4.5t97.5 15.5v267h-151v35h187v-331
q-113 -25 -221 -25q-96 0 -153 39zM233 838.5q-40 32.5 -39 84.5h34q-1 -37 30 -62t75 -25q43 0 72.5 24.5t28.5 62.5h36q1 -52 -39 -84.5t-99 -32.5t-99 32.5z" />
    <glyph glyph-name="gbreve" unicode="&#x11f;" horiz-adv-x="501" 
d="M59 0zM130 -222q-41 16 -56 48t-15 88q0 36 7.5 56.5t22 34t53.5 43.5q-11 7 -16.5 24.5t-5.5 36.5q0 12 5.5 27t25.5 55q-86 25 -86 152q0 85 41 126t134 41q49 0 102 -13l140 3v-35l-109 -1q20 -14 30.5 -45.5t10.5 -76.5q0 -88 -43 -125.5t-138 -37.5q-32 0 -55 4
l-8 -20q-7 -17 -11 -30t-4 -25q0 -30 21.5 -40t63.5 -10l69 1q54 0 88 -11t52.5 -40.5t18.5 -85.5t-20 -90.5t-67.5 -52t-130.5 -17.5q-79 0 -120 16zM346 240.5q31 29.5 31 104.5q0 74 -30.5 103.5t-105.5 29.5q-77 0 -109 -30.5t-32 -104.5t31.5 -103t107.5 -29t107 29.5z
M361 -194.5q38 12.5 54.5 41t16.5 78.5q0 42 -10.5 63t-40.5 30t-92 8l-120 4q-33 -22 -48 -36.5t-21 -31.5t-6 -46q0 -48 14.5 -74.5t48.5 -37.5t98 -11q68 0 106 12.5zM155 631q-39 36 -38 92h34q2 -44 29.5 -70t75.5 -26q46 0 74.5 27t26.5 69h36q1 -56 -37.5 -92
t-99.5 -36q-62 0 -101 36z" />
    <glyph glyph-name="Gdotaccent" unicode="&#x120;" horiz-adv-x="619" 
d="M65 0zM173 30q-57 39 -82.5 117t-25.5 201q0 124 24.5 202.5t81.5 118.5t155 40q90 0 188 -20l33 -5l-3 -35q-130 26 -227 26q-73 0 -119.5 -29t-70 -97t-23.5 -186q0 -123 20 -196t68.5 -107.5t135.5 -34.5q45 0 85.5 4.5t97.5 15.5v267h-151v35h187v-331
q-113 -25 -221 -25q-96 0 -153 39zM296 879h34v-55h-34v55z" />
    <glyph glyph-name="gdotaccent" unicode="&#x121;" horiz-adv-x="501" 
d="M59 0zM130 -222q-41 16 -56 48t-15 88q0 36 7.5 56.5t22 34t53.5 43.5q-11 7 -16.5 24.5t-5.5 36.5q0 12 5.5 27t25.5 55q-86 25 -86 152q0 85 41 126t134 41q49 0 102 -13l140 3v-35l-109 -1q20 -14 30.5 -45.5t10.5 -76.5q0 -88 -43 -125.5t-138 -37.5q-32 0 -55 4
l-8 -20q-7 -17 -11 -30t-4 -25q0 -30 21.5 -40t63.5 -10l69 1q54 0 88 -11t52.5 -40.5t18.5 -85.5t-20 -90.5t-67.5 -52t-130.5 -17.5q-79 0 -120 16zM346 240.5q31 29.5 31 104.5q0 74 -30.5 103.5t-105.5 29.5q-77 0 -109 -30.5t-32 -104.5t31.5 -103t107.5 -29t107 29.5z
M361 -194.5q38 12.5 54.5 41t16.5 78.5q0 42 -10.5 63t-40.5 30t-92 8l-120 4q-33 -22 -48 -36.5t-21 -31.5t-6 -46q0 -48 14.5 -74.5t48.5 -37.5t98 -11q68 0 106 12.5zM237 699h34v-55h-34v55z" />
    <glyph glyph-name="Gcommaaccent" unicode="&#x122;" horiz-adv-x="619" 
d="M65 0zM173 30q-57 39 -82.5 117t-25.5 201q0 124 24.5 202.5t81.5 118.5t155 40q90 0 188 -20l33 -5l-3 -35q-130 26 -227 26q-73 0 -119.5 -29t-70 -97t-23.5 -186q0 -123 20 -196t68.5 -107.5t135.5 -34.5q45 0 85.5 4.5t97.5 15.5v267h-151v35h187v-331
q-113 -25 -221 -25q-96 0 -153 39zM324 -79h37l-47 -189h-27z" />
    <glyph glyph-name="gcommaaccent" unicode="&#x123;" horiz-adv-x="501" 
d="M244 593h-37l47 189h27zM130 -222q-41 16 -56 48t-15 88q0 36 7.5 56.5t22 34t53.5 43.5q-11 7 -16.5 24.5t-5.5 36.5q0 12 5.5 27t25.5 55q-86 25 -86 152q0 85 41 126t134 41q49 0 102 -13l140 3v-35l-109 -1q20 -14 30.5 -45.5t10.5 -76.5q0 -88 -43 -125.5
t-138 -37.5q-32 0 -55 4l-8 -20q-7 -17 -11 -30t-4 -25q0 -30 21.5 -40t63.5 -10l69 1q54 0 88 -11t52.5 -40.5t18.5 -85.5t-20 -90.5t-67.5 -52t-130.5 -17.5q-79 0 -120 16zM346 240.5q31 29.5 31 104.5q0 74 -30.5 103.5t-105.5 29.5q-77 0 -109 -30.5t-32 -104.5
t31.5 -103t107.5 -29t107 29.5zM361 -194.5q38 12.5 54.5 41t16.5 78.5q0 42 -10.5 63t-40.5 30t-92 8l-120 4q-33 -22 -48 -36.5t-21 -31.5t-6 -46q0 -48 14.5 -74.5t48.5 -37.5t98 -11q68 0 106 12.5z" />
    <glyph glyph-name="Hcircumflex" unicode="&#x124;" horiz-adv-x="674" 
d="M92 0zM581 700v-700h-34v334h-418v-334h-37v700h37v-331h418v331h34zM323 934h30l134 -126h-45l-104 96l-104 -96h-45z" />
    <glyph glyph-name="hcircumflex" unicode="&#x125;" horiz-adv-x="526" 
d="M79 0zM79 730h35v-261q91 40 176 40q67 0 101.5 -22t48 -74.5t13.5 -153.5v-259h-36v258q0 92 -10 137.5t-37.5 63.5t-83.5 18q-41 0 -76 -7.5t-73 -22.5l-23 -9v-438h-35v730zM246 923h29l122 -133h-43l-91 100l-95 -100h-43z" />
    <glyph glyph-name="Hbar" unicode="&#x126;" horiz-adv-x="687" 
d="M96 523h-84v31h84v146h37v-146h418v146h34v-146h95v-31h-95v-523h-34v334h-418v-334h-37v523zM551 369v154h-418v-154h418z" />
    <glyph glyph-name="hbar" unicode="&#x127;" horiz-adv-x="526" 
d="M79 612h-70v33h70v85h35v-85h162v-33h-162v-143q89 40 174 40q68 0 103 -21.5t48.5 -74t13.5 -154.5v-259h-36v258q0 92 -10 137.5t-37 63.5t-81 18q-76 0 -152 -30l-23 -9v-438h-35v612z" />
    <glyph glyph-name="Itilde" unicode="&#x128;" horiz-adv-x="219" 
d="M0 0zM92 700h37v-700h-37v700zM102 863q-57 29 -73 29q-22 0 -57 -38l-13 -14l-9 30q20 23 42.5 38.5t39.5 15.5q18 0 80 -30q61 -30 70 -30q18 0 52 37l11 12l10 -29q-28 -34 -43 -42.5t-31 -8.5q-18 0 -79 30z" />
    <glyph glyph-name="itilde" unicode="&#x129;" horiz-adv-x="191" 
d="M0 0zM79 500h34v-500h-34v500zM99 658q-58 26 -69 26q-20 0 -60 -34l-13 -12l-10 30q27 27 44.5 37t37.5 10q18 0 76 -26q59 -27 68 -27q15 0 52 32l13 9l9 -29q-28 -29 -42 -36.5t-32 -7.5q-21 0 -74 28z" />
    <glyph glyph-name="Imacron" unicode="&#x12a;" horiz-adv-x="219" 
d="M0 0zM92 700h37v-700h-37v700zM-32 863h287v-31h-287v31z" />
    <glyph glyph-name="imacron" unicode="&#x12b;" horiz-adv-x="191" 
d="M0 0zM79 500h34v-500h-34v500zM-37 674h267v-32h-267v32z" />
    <glyph glyph-name="Ibreve" unicode="&#x12c;" horiz-adv-x="219" 
d="M0 0zM92 700h37v-700h-37v700zM13 838.5q-40 32.5 -39 84.5h34q-1 -37 30 -62t75 -25q43 0 72.5 24.5t28.5 62.5h36q1 -52 -39 -84.5t-99 -32.5t-99 32.5z" />
    <glyph glyph-name="ibreve" unicode="&#x12d;" horiz-adv-x="191" 
d="M0 0zM79 500h34v-500h-34v500zM-4 631q-39 36 -38 92h34q2 -44 29.5 -70t75.5 -26q46 0 74.5 27t26.5 69h36q1 -56 -37.5 -92t-99.5 -36q-62 0 -101 36z" />
    <glyph glyph-name="Iogonek" unicode="&#x12e;" horiz-adv-x="219" 
d="M155 -192q-34 -7 -68 -7q-31 0 -54 21.5t-23 50.5q0 26 19 56.5t44 56.5l19 17v697h37v-700h-2q-40 -44 -59 -72.5t-19 -44.5q0 -20 14 -34.5t33 -14.5l55 8z" />
    <glyph glyph-name="iogonek" unicode="&#x12f;" horiz-adv-x="191" 
d="M112 645h-34v55h34v-55zM140 -192q-34 -7 -68 -7q-31 0 -54 21.5t-23 50.5q0 26 19 56.5t44 56.5l21 19v495h34v-500h-1q-40 -44 -59 -72.5t-19 -44.5q0 -20 14 -34.5t33 -14.5l55 8z" />
    <glyph glyph-name="Idotaccent" unicode="&#x130;" horiz-adv-x="219" 
d="M92 0zM92 700h37v-700h-37v700zM92 879h34v-55h-34v55z" />
    <glyph glyph-name="dotlessi" unicode="&#x131;" horiz-adv-x="191" 
d="M79 500h34v-500h-34v500z" />
    <glyph glyph-name="Jcircumflex" unicode="&#x134;" horiz-adv-x="280" 
d="M17 0zM17 -38q68 0 94.5 7t35 33.5t8.5 93.5v604h35l1 -618q0 -69 -16.5 -102.5t-44 -43t-73.5 -9.5h-40v35zM157 929h30l134 -126h-45l-104 96l-104 -96h-45z" />
    <glyph glyph-name="jcircumflex" unicode="&#x135;" horiz-adv-x="192" 
d="M0 0zM-59 -188q60 33 88.5 57t39.5 54.5t11 82.5v494h34v-495q0 -59 -13.5 -95.5t-46.5 -65t-98 -62.5zM77 733h29l122 -133h-43l-91 100l-95 -100h-43z" />
    <glyph glyph-name="Kcommaaccent" unicode="&#x136;" horiz-adv-x="553" 
d="M92 0zM256 327l-127 2v-329h-37v700h37v-337l124 -2l225 339h42l-236 -354l251 -346h-45zM276 -79h37l-47 -189h-27z" />
    <glyph glyph-name="kcommaaccent" unicode="&#x137;" horiz-adv-x="455" 
d="M79 0zM79 730h35v-441h96l173 211h41l-185 -225l192 -275h-41l-181 257l-95 1v-258h-35v730zM211 -79h37l-47 -189h-27z" />
    <glyph glyph-name="Lacute" unicode="&#x139;" horiz-adv-x="484" 
d="M92 0zM469 34v-34h-377v700h37v-666h340zM150 826l192 96l16 -30l-191 -93z" />
    <glyph glyph-name="lacute" unicode="&#x13a;" horiz-adv-x="205" 
d="M59 0zM85 730h35v-730h-35v730zM59 836l192 95l17 -30l-194 -92z" />
    <glyph glyph-name="Lcommaaccent" unicode="&#x13b;" horiz-adv-x="484" 
d="M92 0zM469 34v-34h-377v700h37v-666h340zM265 -79h37l-47 -189h-27z" />
    <glyph glyph-name="lcommaaccent" unicode="&#x13c;" horiz-adv-x="205" 
d="M42 0zM85 730h35v-730h-35v730zM79 -79h37l-47 -189h-27z" />
    <glyph glyph-name="Lcaron" unicode="&#x13d;" horiz-adv-x="491" 
d="M469 34v-34h-377v700h37v-666h340zM424 483h-35v217h35v-217z" />
    <glyph glyph-name="lcaron" unicode="&#x13e;" horiz-adv-x="134" 
d="M85 0zM85 730h35v-730h-35v730zM223 686h37l-47 -189h-27z" />
    <glyph glyph-name="Lslash" unicode="&#x141;" horiz-adv-x="484" 
d="M95 309l-67 -48l-19 27l86 60v352h36v-326l171 118l18 -25l-189 -133v-300h341v-34h-377v309z" />
    <glyph glyph-name="lslash" unicode="&#x142;" horiz-adv-x="263" 
d="M111 320l-78 -55l-18 26l96 68v371h35v-347l82 57l18 -26l-100 -70v-344h-35v320z" />
    <glyph glyph-name="Nacute" unicode="&#x143;" horiz-adv-x="665" 
d="M92 0zM572 700v-700h-83l-341 667h-19v-667h-37v700h85l338 -667h23v667h34zM232 826l192 96l16 -30l-191 -93z" />
    <glyph glyph-name="nacute" unicode="&#x144;" horiz-adv-x="526" 
d="M79 0zM79 500h34v-40q51 27 93.5 38t87.5 11q65 0 98.5 -22t47 -75t13.5 -153v-259h-34v259q0 86 -9.5 132t-35 66t-74.5 20q-45 0 -91.5 -12t-70.5 -25l-24 -13v-427h-35v500zM169 636l192 95l17 -30l-194 -92z" />
    <glyph glyph-name="Ncommaaccent" unicode="&#x145;" horiz-adv-x="665" 
d="M92 0zM572 700v-700h-83l-341 667h-19v-667h-37v700h85l338 -667h23v667h34zM340 -79h37l-47 -189h-27z" />
    <glyph glyph-name="ncommaaccent" unicode="&#x146;" horiz-adv-x="526" 
d="M79 0zM79 500h34v-40q51 27 93.5 38t87.5 11q65 0 98.5 -22t47 -75t13.5 -153v-259h-34v259q0 86 -9.5 132t-35 66t-74.5 20q-45 0 -91.5 -12t-70.5 -25l-24 -13v-427h-35v500zM256 -79h37l-47 -189h-27z" />
    <glyph glyph-name="Ncaron" unicode="&#x147;" horiz-adv-x="665" 
d="M92 0zM572 700v-700h-83l-341 667h-19v-667h-37v700h85l338 -667h23v667h34zM183 929h46l103 -96l104 96h46l-134 -126h-31z" />
    <glyph glyph-name="ncaron" unicode="&#x148;" horiz-adv-x="526" 
d="M79 0zM79 500h34v-40q51 27 93.5 38t87.5 11q65 0 98.5 -22t47 -75t13.5 -153v-259h-34v259q0 86 -9.5 132t-35 66t-74.5 20q-45 0 -91.5 -12t-70.5 -25l-24 -13v-427h-35v500zM171 733l94 -101l91 101h43l-121 -133h-29l-121 133h43z" />
    <glyph glyph-name="Eng" unicode="&#x14a;" horiz-adv-x="665" 
d="M400 -139q68 0 94.5 7t35 33.5t8.5 94.5v4h-49l-335 667h-25v-667h-37v700h85l332 -667h29v667h34l2 -719q0 -58 -10 -90t-35.5 -46.5t-73.5 -18.5q-9 1 -17 0.5t-14 -0.5h-24v35z" />
    <glyph glyph-name="eng" unicode="&#x14b;" horiz-adv-x="529" 
d="M291 -199q55 31 81.5 56t36.5 55.5t10 80.5v265q0 88 -9.5 133.5t-37 65.5t-83.5 20q-37 0 -84.5 -12.5t-66.5 -25.5l-25 -11v-428h-34v501h34v-41q89 49 178 49q66 0 100.5 -22.5t48.5 -75.5t14 -152v-266q0 -58 -12 -94t-43 -64.5t-94 -64.5z" />
    <glyph glyph-name="Omacron" unicode="&#x14c;" horiz-adv-x="665" 
d="M66 0zM172.5 28q-58.5 37 -82.5 114t-24 205q0 126 25 205t83.5 118t158.5 39t158.5 -38.5t84 -118t25.5 -208.5q0 -132 -24.5 -208t-82.5 -110.5t-160 -34.5q-103 0 -161.5 37zM474 56.5q49 31.5 69 99.5t20 188q0 119 -21 190.5t-71 106t-138 34.5q-89 0 -139 -34
t-70.5 -104.5t-20.5 -189.5q0 -124 21 -193t70.5 -99t139.5 -30q91 0 140 31.5zM191 863h287v-31h-287v31z" />
    <glyph glyph-name="omacron" unicode="&#x14d;" horiz-adv-x="525" 
d="M59 0zM135.5 14.5q-43.5 23.5 -60 77t-16.5 152.5q0 104 18 160.5t61.5 80.5t124.5 24t124.5 -24.5t61 -81t17.5 -159.5q0 -99 -16 -152t-59.5 -77t-127.5 -24t-127.5 23.5zM369.5 44.5q34.5 20.5 46.5 66t12 133.5q0 95 -13 143.5t-47.5 68.5t-103.5 20t-104.5 -20
t-49 -69t-13.5 -143q0 -87 12.5 -133t48 -66.5t106.5 -20.5t105.5 20.5zM129 694h267v-32h-267v32z" />
    <glyph glyph-name="Obreve" unicode="&#x14e;" horiz-adv-x="665" 
d="M66 0zM172.5 28q-58.5 37 -82.5 114t-24 205q0 126 25 205t83.5 118t158.5 39t158.5 -38.5t84 -118t25.5 -208.5q0 -132 -24.5 -208t-82.5 -110.5t-160 -34.5q-103 0 -161.5 37zM474 56.5q49 31.5 69 99.5t20 188q0 119 -21 190.5t-71 106t-138 34.5q-89 0 -139 -34
t-70.5 -104.5t-20.5 -189.5q0 -124 21 -193t70.5 -99t139.5 -30q91 0 140 31.5zM235 838.5q-40 32.5 -39 84.5h34q-1 -37 30 -62t75 -25q43 0 72.5 24.5t28.5 62.5h36q1 -52 -39 -84.5t-99 -32.5t-99 32.5z" />
    <glyph glyph-name="obreve" unicode="&#x14f;" horiz-adv-x="525" 
d="M59 0zM135.5 14.5q-43.5 23.5 -60 77t-16.5 152.5q0 104 18 160.5t61.5 80.5t124.5 24t124.5 -24.5t61 -81t17.5 -159.5q0 -99 -16 -152t-59.5 -77t-127.5 -24t-127.5 23.5zM369.5 44.5q34.5 20.5 46.5 66t12 133.5q0 95 -13 143.5t-47.5 68.5t-103.5 20t-104.5 -20
t-49 -69t-13.5 -143q0 -87 12.5 -133t48 -66.5t106.5 -20.5t105.5 20.5zM165 631q-39 36 -38 92h34q2 -44 29.5 -70t75.5 -26q46 0 74.5 27t26.5 69h36q1 -56 -37.5 -92t-99.5 -36q-62 0 -101 36z" />
    <glyph glyph-name="Ohungarumlaut" unicode="&#x150;" horiz-adv-x="665" 
d="M66 0zM172.5 28q-58.5 37 -82.5 114t-24 205q0 126 25 205t83.5 118t158.5 39t158.5 -38.5t84 -118t25.5 -208.5q0 -132 -24.5 -208t-82.5 -110.5t-160 -34.5q-103 0 -161.5 37zM474 56.5q49 31.5 69 99.5t20 188q0 119 -21 190.5t-71 106t-138 34.5q-89 0 -139 -34
t-70.5 -104.5t-20.5 -189.5q0 -124 21 -193t70.5 -99t139.5 -30q91 0 140 31.5zM147 791l192 89l12 -31l-189 -87zM336 792l192 87l15 -31l-192 -87z" />
    <glyph glyph-name="ohungarumlaut" unicode="&#x151;" horiz-adv-x="525" 
d="M59 0zM135.5 14.5q-43.5 23.5 -60 77t-16.5 152.5q0 104 18 160.5t61.5 80.5t124.5 24t124.5 -24.5t61 -81t17.5 -159.5q0 -99 -16 -152t-59.5 -77t-127.5 -24t-127.5 23.5zM369.5 44.5q34.5 20.5 46.5 66t12 133.5q0 95 -13 143.5t-47.5 68.5t-103.5 20t-104.5 -20
t-49 -69t-13.5 -143q0 -87 12.5 -133t48 -66.5t106.5 -20.5t105.5 20.5zM305 621l164 105l17 -27l-163 -104zM119 621l164 104l17 -26l-161 -104z" />
    <glyph glyph-name="OE" unicode="&#x152;" horiz-adv-x="940" 
d="M172.5 28.5q-58.5 37.5 -83.5 114t-25 203.5t25 206t84 118t160 39q103 0 157 -9h399v-35h-363v-287h303v-36h-303v-307h363v-37h-397q-119 -7 -159 -7q-102 0 -160.5 37.5zM490 33v630q-118 11 -148 11q-90 0 -141 -27.5t-74.5 -94.5t-23.5 -190q0 -127 20 -199
t69.5 -104.5t140.5 -32.5q74 0 157 7z" />
    <glyph glyph-name="oe" unicode="&#x153;" horiz-adv-x="872" 
d="M139 15.5q-45 24.5 -62.5 80t-17.5 157.5q0 98 20.5 153.5t64.5 79t120 23.5t120 -28.5t66 -92.5q20 58 66.5 89.5t114.5 31.5q97 0 143.5 -57.5t46.5 -182.5v-34h-354q-1 -108 33.5 -160t108.5 -52q64 0 161 7l29 2l2 -33q-117 -8 -180 -8q-130 0 -172 107
q-20 -58 -61.5 -82.5t-117.5 -24.5q-86 0 -131 24.5zM368 44.5q35 22.5 47.5 70.5t12.5 137q0 84 -17 133t-53.5 70.5t-98.5 21.5t-96.5 -19t-50 -66.5t-15.5 -134.5q0 -93 13 -142t48.5 -71t105.5 -22q69 0 104 22.5zM784 268q0 112 -36.5 160.5t-116.5 48.5t-122.5 -53.5
t-42.5 -155.5h318z" />
    <glyph glyph-name="Racute" unicode="&#x154;" horiz-adv-x="613" 
d="M92 0zM92 700h251q105 0 156.5 -48.5t51.5 -152.5q0 -179 -145 -204l157 -295h-41l-155 290h-238v-290h-37v700zM343 324q86 0 128.5 41.5t42.5 129.5t-41.5 129t-129.5 41h-214v-341h214zM198 826l192 96l16 -30l-191 -93z" />
    <glyph glyph-name="racute" unicode="&#x155;" horiz-adv-x="329" 
d="M79 0zM79 500h34v-78q87 65 199 88v-36q-42 -8 -94.5 -30t-74.5 -39l-29 -17v-388h-35v500zM80 636l192 95l17 -30l-194 -92z" />
    <glyph glyph-name="Rcommaaccent" unicode="&#x156;" horiz-adv-x="613" 
d="M92 0zM92 700h251q105 0 156.5 -48.5t51.5 -152.5q0 -179 -145 -204l157 -295h-41l-155 290h-238v-290h-37v700zM343 324q86 0 128.5 41.5t42.5 129.5t-41.5 129t-129.5 41h-214v-341h214zM305 -79h37l-47 -189h-27z" />
    <glyph glyph-name="rcommaaccent" unicode="&#x157;" horiz-adv-x="329" 
d="M41 0zM79 500h34v-78q87 65 199 88v-36q-42 -8 -94.5 -30t-74.5 -39l-29 -17v-388h-35v500zM78 -79h37l-47 -189h-27z" />
    <glyph glyph-name="Rcaron" unicode="&#x158;" horiz-adv-x="613" 
d="M92 0zM92 700h251q105 0 156.5 -48.5t51.5 -152.5q0 -179 -145 -204l157 -295h-41l-155 290h-238v-290h-37v700zM343 324q86 0 128.5 41.5t42.5 129.5t-41.5 129t-129.5 41h-214v-341h214zM152 934h46l103 -96l104 96h46l-134 -126h-31z" />
    <glyph glyph-name="rcaron" unicode="&#x159;" horiz-adv-x="329" 
d="M40 0zM79 500h34v-78q87 65 199 88v-36q-42 -8 -94.5 -30t-74.5 -39l-29 -17v-388h-35v500zM83 733l94 -101l91 101h43l-121 -133h-29l-121 133h43z" />
    <glyph glyph-name="Sacute" unicode="&#x15a;" horiz-adv-x="541" 
d="M55 0zM96 5l-36 4l4 35q138 -18 208 -18q176 0 176 173q0 48 -13 74t-49.5 42t-112.5 28q-85 14 -130 33t-66.5 55.5t-21.5 103.5q0 88 52.5 131.5t164.5 43.5q88 0 199 -15l-4 -36q-151 18 -196 18q-177 0 -177 -140q0 -57 11.5 -83t49.5 -41.5t128 -32.5
q76 -13 119 -31.5t63 -53t20 -92.5q0 -108 -50 -159t-161 -51q-55 0 -178 12zM175 826l192 96l16 -30l-191 -93z" />
    <glyph glyph-name="sacute" unicode="&#x15b;" horiz-adv-x="460" 
d="M51 0zM86 3l-29 4l4 34q118 -18 170 -18q75 0 110 26.5t35 84.5q0 41 -16.5 62.5t-42 30t-72.5 15.5q-18 2 -27 4q-68 11 -103 25.5t-49.5 37.5t-14.5 62q0 78 47 107.5t136 29.5q79 0 136 -9l25 -5l-2 -32q-48 8 -92.5 12t-70.5 4q-76 0 -109.5 -26t-33.5 -75
q0 -37 17.5 -55.5t43.5 -25.5t91 -19q69 -12 103.5 -25t52 -39t17.5 -74q0 -78 -46.5 -113t-141.5 -35q-51 0 -138 12zM129 636l192 95l17 -30l-194 -92z" />
    <glyph glyph-name="Scircumflex" unicode="&#x15c;" horiz-adv-x="541" 
d="M55 0zM96 5l-36 4l4 35q138 -18 208 -18q176 0 176 173q0 48 -13 74t-49.5 42t-112.5 28q-85 14 -130 33t-66.5 55.5t-21.5 103.5q0 88 52.5 131.5t164.5 43.5q88 0 199 -15l-4 -36q-151 18 -196 18q-177 0 -177 -140q0 -57 11.5 -83t49.5 -41.5t128 -32.5
q76 -13 119 -31.5t63 -53t20 -92.5q0 -108 -50 -159t-161 -51q-55 0 -178 12zM258 929h30l134 -126h-45l-104 96l-104 -96h-45z" />
    <glyph glyph-name="scircumflex" unicode="&#x15d;" horiz-adv-x="460" 
d="M51 0zM86 3l-29 4l4 34q118 -18 170 -18q75 0 110 26.5t35 84.5q0 41 -16.5 62.5t-42 30t-72.5 15.5q-18 2 -27 4q-68 11 -103 25.5t-49.5 37.5t-14.5 62q0 78 47 107.5t136 29.5q79 0 136 -9l25 -5l-2 -32q-48 8 -92.5 12t-70.5 4q-76 0 -109.5 -26t-33.5 -75
q0 -37 17.5 -55.5t43.5 -25.5t91 -19q69 -12 103.5 -25t52 -39t17.5 -74q0 -78 -46.5 -113t-141.5 -35q-51 0 -138 12zM217 733h29l122 -133h-43l-91 100l-95 -100h-43z" />
    <glyph glyph-name="Scedilla" unicode="&#x15e;" horiz-adv-x="541" 
d="M439.5 48q-45.5 -51 -148.5 -55v-50q57 1 80 -14.5t23 -54.5q0 -38 -19.5 -56.5t-61.5 -18.5q-46 0 -70 3l-11 1l2 28q60 -4 78 -4q48 0 48 46q0 42 -48 42h-54v78q-45 1 -162 12l-36 4l4 35q138 -18 208 -18q176 0 176 173q0 48 -13 74t-49.5 42t-112.5 28
q-85 14 -130 33t-66.5 55.5t-21.5 103.5q0 88 52.5 131.5t164.5 43.5q88 0 199 -15l-4 -36q-151 18 -196 18q-177 0 -177 -140q0 -57 11.5 -83t49.5 -41.5t128 -32.5q76 -13 119 -31.5t63 -53t20 -92.5q0 -104 -45.5 -155z" />
    <glyph glyph-name="scedilla" unicode="&#x15f;" horiz-adv-x="460" 
d="M368.5 28q-43.5 -35 -131.5 -37v-48q57 1 80 -14.5t23 -54.5q0 -38 -19.5 -56.5t-61.5 -18.5q-46 0 -70 3l-11 1l2 28q60 -4 78 -4q48 0 48 46q0 42 -48 42h-54v76q-53 3 -118 12l-29 4l4 34q118 -18 170 -18q75 0 110 26.5t35 84.5q0 41 -16.5 62.5t-42 30t-72.5 15.5
q-18 2 -27 4q-68 11 -103 25.5t-49.5 37.5t-14.5 62q0 78 47 107.5t136 29.5q79 0 136 -9l25 -5l-2 -32q-48 8 -92.5 12t-70.5 4q-76 0 -109.5 -26t-33.5 -75q0 -37 17.5 -55.5t43.5 -25.5t91 -19q69 -12 103.5 -25t52 -39t17.5 -74q0 -76 -43.5 -111z" />
    <glyph glyph-name="Scaron" unicode="&#x160;" horiz-adv-x="541" 
d="M55 0zM96 5l-36 4l4 35q138 -18 208 -18q176 0 176 173q0 48 -13 74t-49.5 42t-112.5 28q-85 14 -130 33t-66.5 55.5t-21.5 103.5q0 88 52.5 131.5t164.5 43.5q88 0 199 -15l-4 -36q-151 18 -196 18q-177 0 -177 -140q0 -57 11.5 -83t49.5 -41.5t128 -32.5
q76 -13 119 -31.5t63 -53t20 -92.5q0 -108 -50 -159t-161 -51q-55 0 -178 12zM126 934h46l103 -96l104 96h46l-134 -126h-31z" />
    <glyph glyph-name="scaron" unicode="&#x161;" horiz-adv-x="460" 
d="M51 0zM86 3l-29 4l4 34q118 -18 170 -18q75 0 110 26.5t35 84.5q0 41 -16.5 62.5t-42 30t-72.5 15.5q-18 2 -27 4q-68 11 -103 25.5t-49.5 37.5t-14.5 62q0 78 47 107.5t136 29.5q79 0 136 -9l25 -5l-2 -32q-48 8 -92.5 12t-70.5 4q-76 0 -109.5 -26t-33.5 -75
q0 -37 17.5 -55.5t43.5 -25.5t91 -19q69 -12 103.5 -25t52 -39t17.5 -74q0 -78 -46.5 -113t-141.5 -35q-51 0 -138 12zM147 733l94 -101l91 101h43l-121 -133h-29l-121 133h43z" />
    <glyph glyph-name="uni0162" unicode="&#x162;" horiz-adv-x="526" 
d="M361 -71.5q23 -15.5 23 -54.5q0 -38 -19.5 -56.5t-61.5 -18.5q-46 0 -70 3l-11 1l2 28q60 -4 78 -4q48 0 48 46q0 42 -48 42h-54v85h-1v666h-234v34h500v-34h-232v-723q57 1 80 -14.5z" />
    <glyph glyph-name="uni0163" unicode="&#x163;" horiz-adv-x="342" 
d="M30 0zM158 5.5q-26 15.5 -37.5 53.5t-11.5 109v300h-79v32h79v162h34v-162h183v-32h-183v-262q0 -76 5.5 -112.5t24.5 -54.5t62 -18l97 9l5 -32q-82 -8 -107 -8q-46 0 -72 15.5zM99 -198l-11 1l2 28q60 -4 78 -4q48 0 48 46q0 42 -48 42h-54v86h33v-58q57 1 80 -14.5
t23 -54.5q0 -38 -19.5 -56.5t-61.5 -18.5q-46 0 -70 3z" />
    <glyph glyph-name="Tcaron" unicode="&#x164;" horiz-adv-x="526" 
d="M13 0zM247 666h-234v34h500v-34h-232v-666h-34v666zM113 934h46l103 -96l104 96h46l-134 -126h-31z" />
    <glyph glyph-name="tcaron" unicode="&#x165;" horiz-adv-x="395" 
d="M366 700h33v-217h-33v217zM158 5.5q-26 15.5 -37.5 53.5t-11.5 109v300h-79v32h79v162h34v-162h183v-32h-183v-262q0 -76 5.5 -112.5t24.5 -54.5t62 -18l97 9l5 -32q-82 -8 -107 -8q-46 0 -72 15.5z" />
    <glyph glyph-name="Tbar" unicode="&#x166;" horiz-adv-x="530" 
d="M249 331h-183v33h183v302h-233v34h500v-34h-232v-302h181v-33h-181v-331h-35v331z" />
    <glyph glyph-name="tbar" unicode="&#x167;" horiz-adv-x="347" 
d="M163.5 6q-27.5 16 -39.5 54t-12 108v114h-72v32h72v154h-79v33h79v161h36v-161h181v-33h-181v-154h160v-32h-160v-76q0 -85 6.5 -122t25 -49t60.5 -12l97 7l3 -32q-69 -8 -100 -8q-49 0 -76.5 16z" />
    <glyph glyph-name="Utilde" unicode="&#x168;" horiz-adv-x="637" 
d="M88 0zM144.5 40q-56.5 49 -56.5 157v503h36v-505q0 -170 190 -170q101 0 151 40t50 130v505h34v-503q0 -108 -58 -157t-174 -49t-172.5 49zM321 864q-57 29 -73 29q-22 0 -57 -38l-13 -14l-9 30q20 23 42.5 38.5t39.5 15.5q18 0 80 -30q61 -30 70 -30q18 0 52 37l11 12
l10 -29q-28 -34 -43 -42.5t-31 -8.5q-18 0 -79 30z" />
    <glyph glyph-name="utilde" unicode="&#x169;" horiz-adv-x="516" 
d="M74 0zM133 12.5q-33 21.5 -46 74t-13 153.5v260h35v-257q0 -89 9.5 -135t35.5 -65.5t77 -19.5q48 0 91.5 13.5t79.5 36.5v427h36v-500h-37v40q-39 -25 -78.5 -37t-91.5 -12q-65 0 -98 21.5zM261 658q-58 26 -69 26q-20 0 -60 -34l-13 -12l-10 30q27 27 44.5 37t37.5 10
q18 0 76 -26q59 -27 68 -27q15 0 52 32l13 9l9 -29q-28 -29 -42 -36.5t-32 -7.5q-21 0 -74 28z" />
    <glyph glyph-name="Umacron" unicode="&#x16a;" horiz-adv-x="637" 
d="M88 0zM144.5 40q-56.5 49 -56.5 157v503h36v-505q0 -170 190 -170q101 0 151 40t50 130v505h34v-503q0 -108 -58 -157t-174 -49t-172.5 49zM175 863h287v-31h-287v31z" />
    <glyph glyph-name="umacron" unicode="&#x16b;" horiz-adv-x="516" 
d="M74 0zM133 12.5q-33 21.5 -46 74t-13 153.5v260h35v-257q0 -89 9.5 -135t35.5 -65.5t77 -19.5q48 0 91.5 13.5t79.5 36.5v427h36v-500h-37v40q-39 -25 -78.5 -37t-91.5 -12q-65 0 -98 21.5zM121 674h267v-32h-267v32z" />
    <glyph glyph-name="Ubreve" unicode="&#x16c;" horiz-adv-x="637" 
d="M88 0zM144.5 40q-56.5 49 -56.5 157v503h36v-505q0 -170 190 -170q101 0 151 40t50 130v505h34v-503q0 -108 -58 -157t-174 -49t-172.5 49zM221 838.5q-40 32.5 -39 84.5h34q-1 -37 30 -62t75 -25q43 0 72.5 24.5t28.5 62.5h36q1 -52 -39 -84.5t-99 -32.5t-99 32.5z" />
    <glyph glyph-name="ubreve" unicode="&#x16d;" horiz-adv-x="516" 
d="M74 0zM133 12.5q-33 21.5 -46 74t-13 153.5v260h35v-257q0 -89 9.5 -135t35.5 -65.5t77 -19.5q48 0 91.5 13.5t79.5 36.5v427h36v-500h-37v40q-39 -25 -78.5 -37t-91.5 -12q-65 0 -98 21.5zM148 631q-39 36 -38 92h34q2 -44 29.5 -70t75.5 -26q46 0 74.5 27t26.5 69h36
q1 -56 -37.5 -92t-99.5 -36q-62 0 -101 36z" />
    <glyph glyph-name="Uring" unicode="&#x16e;" horiz-adv-x="637" 
d="M88 0zM144.5 40q-56.5 49 -56.5 157v503h36v-505q0 -170 190 -170q101 0 151 40t50 130v505h34v-503q0 -108 -58 -157t-174 -49t-172.5 49zM247.5 783.5q-26.5 25.5 -26.5 67.5q0 41 27 66t72 25q44 0 70 -25t26 -66q0 -43 -25.5 -68t-70.5 -25q-46 0 -72.5 25.5z
M367.5 805q16.5 17 16.5 46t-16 45t-48 16q-34 0 -49 -15t-15 -46q0 -29 16.5 -46t47.5 -17t47.5 17z" />
    <glyph glyph-name="uring" unicode="&#x16f;" horiz-adv-x="516" 
d="M74 0zM133 12.5q-33 21.5 -46 74t-13 153.5v260h35v-257q0 -89 9.5 -135t35.5 -65.5t77 -19.5q48 0 91.5 13.5t79.5 36.5v427h36v-500h-37v40q-39 -25 -78.5 -37t-91.5 -12q-65 0 -98 21.5zM194 582q-26 28 -26 69q0 39 26 66.5t64 27.5t64 -27.5t26 -66.5q0 -41 -26 -69
t-64 -28t-64 28zM302 605q18 19 18 46q0 26 -18.5 45t-43.5 19t-43.5 -19t-18.5 -45q0 -27 18 -46t44 -19t44 19z" />
    <glyph glyph-name="Uhungarumlaut" unicode="&#x170;" horiz-adv-x="637" 
d="M88 0zM144.5 40q-56.5 49 -56.5 157v503h36v-505q0 -170 190 -170q101 0 151 40t50 130v505h34v-503q0 -108 -58 -157t-174 -49t-172.5 49zM157 791l192 89l12 -31l-189 -87zM346 792l192 87l15 -31l-192 -87z" />
    <glyph glyph-name="uhungarumlaut" unicode="&#x171;" horiz-adv-x="516" 
d="M74 0zM133 12.5q-33 21.5 -46 74t-13 153.5v260h35v-257q0 -89 9.5 -135t35.5 -65.5t77 -19.5q48 0 91.5 13.5t79.5 36.5v427h36v-500h-37v40q-39 -25 -78.5 -37t-91.5 -12q-65 0 -98 21.5zM302 621l164 105l17 -27l-163 -104zM116 621l164 104l17 -26l-161 -104z" />
    <glyph glyph-name="Uogonek" unicode="&#x172;" horiz-adv-x="637" 
d="M549 700v-503q0 -84 -35.5 -132t-106.5 -65q-40 -44 -59 -72.5t-19 -44.5q0 -20 14 -34.5t33 -14.5l55 8l4 -34q-34 -7 -68 -7q-31 0 -54 21.5t-23 50.5q0 26 19 56.5t44 56.5l8 7q-28 -2 -44 -2q-116 0 -172.5 49t-56.5 157v503h36v-505q0 -170 190 -170q101 0 151 40
t50 130v505h34z" />
    <glyph glyph-name="uogonek" unicode="&#x173;" horiz-adv-x="516" 
d="M465 -192q-34 -7 -68 -7q-31 0 -54 21.5t-23 50.5q0 26 19 56.5t44 56.5l18 16v38q-39 -25 -78.5 -37t-91.5 -12q-65 0 -98 21.5t-46 74t-13 153.5v260h35v-257q0 -89 9.5 -135t35.5 -65.5t77 -19.5q48 0 91.5 13.5t79.5 36.5v427h36v-500h-1q-40 -44 -59 -72.5
t-19 -44.5q0 -20 14 -34.5t33 -14.5l55 8z" />
    <glyph glyph-name="Wcircumflex" unicode="&#x174;" horiz-adv-x="857" 
d="M37 0zM37 700h37l141 -665h38l154 655h43l154 -655h38l141 665h35l-147 -700h-96l-147 640l-147 -640h-95zM414 929h30l134 -126h-45l-104 96l-104 -96h-45z" />
    <glyph glyph-name="wcircumflex" unicode="&#x175;" horiz-adv-x="755" 
d="M36 0zM36 500h37l127 -468h11l148 458h38l147 -458h13l126 468h37l-135 -500h-69l-138 448l-139 -448h-68zM363 733h29l122 -133h-43l-91 100l-95 -100h-43z" />
    <glyph glyph-name="Ycircumflex" unicode="&#x176;" horiz-adv-x="525" 
d="M17 0zM245 302l-228 398h43l203 -359l203 359h43l-228 -398v-302h-36v302zM249 934h30l134 -126h-45l-104 96l-104 -96h-45z" />
    <glyph glyph-name="ycircumflex" unicode="&#x177;" horiz-adv-x="472" 
d="M31 0zM246 0h-60l-155 500h37l148 -468h39l150 468h37l-230 -730h-37zM224 733h29l122 -133h-43l-91 100l-95 -100h-43z" />
    <glyph glyph-name="Ydieresis" unicode="&#x178;" horiz-adv-x="525" 
d="M17 0zM245 302l-228 398h43l203 -359l203 359h43l-228 -398v-302h-36v302zM146 899h37v-62h-37v62zM342 899h35v-62h-35v62z" />
    <glyph glyph-name="Zacute" unicode="&#x179;" horiz-adv-x="539" 
d="M44 0zM44 67l413 575v25h-413v33h450v-70l-414 -575v-22h414v-35h-450v69zM174 826l192 96l16 -30l-191 -93z" />
    <glyph glyph-name="zacute" unicode="&#x17a;" horiz-adv-x="456" 
d="M43 0zM43 32l326 436h-326v32h371v-32l-327 -436h327v-32h-371v32zM134 636l192 95l17 -30l-194 -92z" />
    <glyph glyph-name="Zdotaccent" unicode="&#x17b;" horiz-adv-x="539" 
d="M44 0zM44 67l413 575v25h-413v33h450v-70l-414 -575v-22h414v-35h-450v69zM250 879h34v-55h-34v55z" />
    <glyph glyph-name="zdotaccent" unicode="&#x17c;" horiz-adv-x="456" 
d="M43 0zM43 32l326 436h-326v32h371v-32l-327 -436h327v-32h-371v32zM210 699h34v-55h-34v55z" />
    <glyph glyph-name="Zcaron" unicode="&#x17d;" horiz-adv-x="539" 
d="M44 0zM44 67l413 575v25h-413v33h450v-70l-414 -575v-22h414v-35h-450v69zM131 934h46l103 -96l104 96h46l-134 -126h-31z" />
    <glyph glyph-name="zcaron" unicode="&#x17e;" horiz-adv-x="456" 
d="M43 0zM43 32l326 436h-326v32h371v-32l-327 -436h327v-32h-371v32zM134 733l94 -101l91 101h43l-121 -133h-29l-121 133h43z" />
    <glyph glyph-name="florin" unicode="&#x192;" 
d="M50 -235l-14 1l1 34q66 -7 97 -7q44 0 64.5 33t20.5 113v414h-69v30h69v74q0 104 27.5 160.5t99.5 56.5q18 0 80 -5l12 -2l-1 -32q-39 5 -93 5q-42 0 -66 -37.5t-24 -107.5v-112h161v-30h-161v-413q0 -67 -12.5 -106t-40.5 -55.5t-75 -16.5q-30 0 -76 3z" />
    <glyph glyph-name="Aringacute" unicode="&#x1fa;" horiz-adv-x="592" 
d="M29 0zM188 914l192 96l16 -30l-191 -93zM463 215h-334l-66 -215h-34l208 681q-20 12 -30.5 32.5t-10.5 46.5q0 41 27 66t72 25q44 0 70 -25t26 -66q0 -52 -37 -77l209 -683h-34zM246 806q-15 -15 -15 -46q0 -48 40 -60h5l6 5l-2 -5h32l-2 5l6 -5h3q40 12 40 60
q0 29 -16 45t-48 16q-34 0 -49 -15zM452 250l-2 7l1 -1l-129 410h-52l-128 -409l-2 -7h312z" />
    <glyph glyph-name="aringacute" unicode="&#x1fb;" horiz-adv-x="494" 
d="M47 0zM148 805l192 95l17 -30l-194 -92zM81.5 29q-34.5 38 -34.5 105t33.5 102.5t105.5 45.5l190 19v51q0 62 -26 92.5t-71 30.5q-44 0 -77.5 -3t-125.5 -14l-3 33q104 18 189 18q77 0 113.5 -38.5t36.5 -118.5v-288q1 -15 21 -26.5t53 -15.5l-2 -31q-33 0 -61.5 12
t-41.5 32q-100 -44 -202 -44q-63 0 -97.5 38zM348 54l28 11v203l-186 -18q-55 -4 -79.5 -30.5t-24.5 -79.5q0 -116 94 -116q87 0 168 30zM184 582q-26 28 -26 69q0 39 26 66.5t64 27.5t64 -27.5t26 -66.5q0 -41 -26 -69t-64 -28t-64 28zM292 605q18 19 18 46q0 26 -18.5 45
t-43.5 19t-43.5 -19t-18.5 -45q0 -27 18 -46t44 -19t44 19z" />
    <glyph glyph-name="AEacute" unicode="&#x1fc;" horiz-adv-x="879" 
d="M25 0zM276 700h552v-34h-373v-288h313v-34h-313v-310h373v-34h-409v214h-277l-77 -214h-40zM419 249l1 417h-115l-150 -417h264zM445 826l192 96l16 -30l-191 -93z" />
    <glyph glyph-name="aeacute" unicode="&#x1fd;" horiz-adv-x="817" 
d="M47 0zM79 28.5q-32 37.5 -32 112.5q0 52 16.5 79.5t55.5 42t114 23.5l143 15v52q0 63 -27 92.5t-81 29.5q-55 0 -161 -8l-30 -2l-2 34q103 10 186 10q117 0 144 -97q45 97 166 97q102 0 148.5 -57t46.5 -183v-34h-354q-1 -107 34 -159.5t108 -52.5q63 0 161 7l29 2l2 -33
q-117 -8 -197 -8q-84 0 -130 58l-38 -16q-90 -42 -211 -42q-59 0 -91 37.5zM729 268q0 112 -36 160.5t-115 48.5q-82 0 -124 -50.5t-42 -158.5h317zM259.5 33q45.5 10 79 23t34.5 19v193l-183 -18q-55 -5 -79.5 -31.5t-24.5 -80.5q0 -115 91 -115q37 0 82.5 10zM313 636
l192 95l17 -30l-194 -92z" />
    <glyph glyph-name="Oslashacute" unicode="&#x1fe;" horiz-adv-x="665" 
d="M66 0zM111 -98l59 127q-57 39 -80.5 114.5t-23.5 204.5q0 126 25 204.5t83.5 117.5t158.5 39q86 0 142 -27l53 110l30 -12l-55 -118q98 -75 98 -314q0 -132 -24 -209t-82 -112.5t-162 -35.5q-79 0 -136 22l-57 -122zM461 648q-44 27 -128 27q-91 0 -140.5 -33.5
t-69.5 -109.5t-20 -215q0 -202 76 -266zM475 56q49 31 68.5 104t19.5 209q0 195 -71 271l-279 -595q48 -20 120 -20q93 0 142 31zM235 826l192 96l16 -30l-191 -93z" />
    <glyph glyph-name="oslashacute" unicode="&#x1ff;" horiz-adv-x="525" 
d="M59 0zM104 -105l44 113q-50 25 -69.5 82.5t-19.5 168.5q0 93 20 147t64 78.5t120 24.5q43 0 86 -10l45 106l29 -11l-44 -108q87 -43 87 -227q0 -104 -16 -160.5t-59.5 -82t-127.5 -25.5q-42 0 -85 10l-44 -116zM337 467l-74 9q-63 0 -99 -20t-51.5 -61.5t-15.5 -111.5
q0 -73 3.5 -118t17 -81t41.5 -55zM369.5 44.5q34.5 20.5 46.5 71.5t12 156q0 149 -60 190l-177 -431q30 -7 72 -7q72 0 106.5 20.5zM159 636l192 95l17 -30l-194 -92z" />
    <glyph glyph-name="Scommaaccent" unicode="&#x218;" horiz-adv-x="541" 
d="M55 0zM96 5l-36 4l4 35q138 -18 208 -18q176 0 176 173q0 48 -13 74t-49.5 42t-112.5 28q-85 14 -130 33t-66.5 55.5t-21.5 103.5q0 88 52.5 131.5t164.5 43.5q88 0 199 -15l-4 -36q-151 18 -196 18q-177 0 -177 -140q0 -57 11.5 -83t49.5 -41.5t128 -32.5
q76 -13 119 -31.5t63 -53t20 -92.5q0 -108 -50 -159t-161 -51q-55 0 -178 12zM271 -79h37l-47 -189h-27z" />
    <glyph glyph-name="scommaaccent" unicode="&#x219;" horiz-adv-x="460" 
d="M51 0zM86 3l-29 4l4 34q118 -18 170 -18q75 0 110 26.5t35 84.5q0 41 -16.5 62.5t-42 30t-72.5 15.5q-18 2 -27 4q-68 11 -103 25.5t-49.5 37.5t-14.5 62q0 78 47 107.5t136 29.5q79 0 136 -9l25 -5l-2 -32q-48 8 -92.5 12t-70.5 4q-76 0 -109.5 -26t-33.5 -75
q0 -37 17.5 -55.5t43.5 -25.5t91 -19q69 -12 103.5 -25t52 -39t17.5 -74q0 -78 -46.5 -113t-141.5 -35q-51 0 -138 12zM234 -79h37l-47 -189h-27z" />
    <glyph glyph-name="uni021A" unicode="&#x21a;" horiz-adv-x="526" 
d="M13 0zM247 666h-234v34h500v-34h-232v-666h-34v666zM263 -79h37l-47 -189h-27z" />
    <glyph glyph-name="uni021B" unicode="&#x21b;" horiz-adv-x="342" 
d="M30 0zM158 5.5q-26 15.5 -37.5 53.5t-11.5 109v300h-79v32h79v162h34v-162h183v-32h-183v-262q0 -76 5.5 -112.5t24.5 -54.5t62 -18l97 9l5 -32q-82 -8 -107 -8q-46 0 -72 15.5zM204 -79h37l-47 -189h-27z" />
    <glyph glyph-name="circumflex" unicode="&#x2c6;" horiz-adv-x="215" 
d="M105 733h29l122 -133h-43l-91 100l-95 -100h-43z" />
    <glyph glyph-name="caron" unicode="&#x2c7;" horiz-adv-x="215" 
d="M28 733l94 -101l91 101h43l-121 -133h-29l-121 133h43z" />
    <glyph glyph-name="breve" unicode="&#x2d8;" horiz-adv-x="215" 
d="M23 631q-39 36 -38 92h34q2 -44 29.5 -70t75.5 -26q46 0 74.5 27t26.5 69h36q1 -56 -37.5 -92t-99.5 -36q-62 0 -101 36z" />
    <glyph glyph-name="dotaccent" unicode="&#x2d9;" horiz-adv-x="215" 
d="M90 699h34v-55h-34v55z" />
    <glyph glyph-name="ring" unicode="&#x2da;" horiz-adv-x="215" 
d="M48 582q-26 28 -26 69q0 39 26 66.5t64 27.5t64 -27.5t26 -66.5q0 -41 -26 -69t-64 -28t-64 28zM156 605q18 19 18 46q0 26 -18.5 45t-43.5 19t-43.5 -19t-18.5 -45q0 -27 18 -46t44 -19t44 19z" />
    <glyph glyph-name="ogonek" unicode="&#x2db;" horiz-adv-x="434" 
d="M190 -177.5q-23 21.5 -23 50.5q0 26 19 56.5t44 56.5l22 20l33 -5q-40 -45 -59.5 -73.5t-19.5 -44.5q0 -20 14 -34.5t33 -14.5l55 8l4 -34q-34 -7 -68 -7q-31 0 -54 21.5z" />
    <glyph glyph-name="tilde" unicode="&#x2dc;" horiz-adv-x="215" 
d="M117 658q-58 26 -69 26q-20 0 -60 -34l-13 -12l-10 30q27 27 44.5 37t37.5 10q18 0 76 -26q59 -27 68 -27q15 0 52 32l13 9l9 -29q-28 -29 -42 -36.5t-32 -7.5q-21 0 -74 28z" />
    <glyph glyph-name="hungarumlaut" unicode="&#x2dd;" horiz-adv-x="215" 
d="M134 621l164 105l17 -27l-163 -104zM-52 621l164 104l17 -26l-161 -104z" />
    <glyph glyph-name="pi" unicode="&#x3c0;" 
d="M438.5 12.5q-28.5 12.5 -41 45.5t-12.5 96v314h-203l-30 -468h-36l30 468q-71 0 -111 -10l-10 -3v32q52 13 136 13h225q79 0 128 11l17 4v-31q-33 -14 -110 -14v-316q0 -52 8 -77.5t28.5 -35t62.5 -9.5v-32q-53 0 -81.5 12.5z" />
    <glyph glyph-name="uni060C" unicode="&#x60c;" horiz-adv-x="196" 
d="M122 87h31l-43 -210h-40z" />
    <glyph glyph-name="uni0615" unicode="&#x615;" horiz-adv-x="0" 
d="M193 841v-71h-193v33h19v169h35v-106q14 27 27.5 39.5t42.5 12.5q69 0 69 -77zM72.5 857q-18.5 -23 -18.5 -49v-5h102v38q0 19 -7.5 29t-26.5 10q-31 0 -49.5 -23z" />
    <glyph glyph-name="uni061B" unicode="&#x61b;" horiz-adv-x="227" 
d="M134 546h31l-43 -210h-40zM86 79h41v-79h-41v79z" />
    <glyph glyph-name="uni061F" unicode="&#x61f;" horiz-adv-x="449" 
d="M246 190v38q0 33 -21 63t-85 86q-39 35 -58 57.5t-27 47.5t-8 64q0 88 49.5 125.5t158.5 37.5q46 0 157 -27l-4 -34q-128 27 -162 27q-86 0 -125.5 -27.5t-39.5 -86.5q0 -39 5 -60.5t21.5 -43t53.5 -55.5q69 -62 94 -95.5t25 -75.5q0 -26 -1 -41h-33zM242 2v79h41v-79
h-41z" />
    <glyph glyph-name="uni0621" unicode="&#x621;" horiz-adv-x="543" 
d="M494 101l-433 -101l-13 43l104 26q-37 36 -55.5 81t-18.5 93q0 57 27 108t77 82t115 31q63 0 125 -24l-9 -44q-48 19 -97 19q-54 0 -95 -25.5t-63 -67t-22 -88.5q0 -92 74 -150l271 68z" />
    <glyph glyph-name="uni0622" unicode="&#x622;" horiz-adv-x="226" 
d="M0 0zM97 644h39v-644h-39v644zM114 725q-26 11 -41.5 17t-23.5 6q-22 0 -55 -32l-9 -5l-6 24q16 19 36 33t37 14q9 0 22 -4t42 -18q51 -21 61 -21q9 0 26.5 10.5t26.5 19.5l7 6l7 -24q-16 -21 -33.5 -33.5t-30.5 -12.5q-20 0 -66 20z" />
    <glyph glyph-name="uni0623" unicode="&#x623;" horiz-adv-x="226" 
d="M11 0zM97 644h39v-644h-39v644zM213 707l-194 -38l-8 22l50 13q-31 27 -31 65q0 34 23.5 58.5t61.5 24.5q23 0 43 -8.5t27 -15.5l-8 -23q-6 5 -19.5 10t-29.5 5q-28 0 -46 -18t-18 -43q0 -29 24 -47l116 31z" />
    <glyph glyph-name="uni0624" unicode="&#x624;" horiz-adv-x="472" 
d="M39 0zM323 513.5q51 -4.5 82 -10.5v-458q0 -126 -18.5 -189.5t-50.5 -83.5t-83 -20q-34 0 -136 12v33q75 -11 135 -11q37 0 61.5 13t40 59.5t15.5 141.5h-168q-68 0 -103.5 35t-47 93t-11.5 144q0 74 14 126.5t59 86t131 33.5q29 0 80 -4.5zM87.5 149.5q9.5 -48.5 42 -82
t95.5 -33.5h141v442l-2 1q-66 8 -106 8q-74 0 -113.5 -28.5t-53 -76t-13.5 -116.5q0 -66 9.5 -114.5zM323 624l-194 -38l-8 22l50 13q-31 27 -31 65q0 34 23.5 58.5t61.5 24.5q23 0 43 -8.5t27 -15.5l-8 -23q-6 5 -19.5 10t-29.5 5q-28 0 -46 -18t-18 -43q0 -29 24 -47
l116 31z" />
    <glyph glyph-name="uni0625" unicode="&#x625;" horiz-adv-x="226" 
d="M32 0zM97 730h39v-730h-39v730zM234 -202l-194 -38l-8 22l49 13q-30 26 -30 65q0 34 23.5 58.5t61.5 24.5q23 0 43 -9t26 -15l-8 -24q-6 5 -19 10.5t-29 5.5q-28 0 -46 -18t-18 -43q0 -28 23 -48l117 32z" />
    <glyph glyph-name="uni0626" unicode="&#x626;" horiz-adv-x="806" 
d="M40 0zM151 -220.5q-55 27.5 -83 72.5t-28 96q0 26 7 91.5t18 143.5l39 -6q-25 -163 -25 -214q0 -53 28 -93.5t73.5 -62t96.5 -21.5l256 -2q56 0 96 27.5t60 69.5t20 85q0 49 -13.5 79.5t-51 52t-110.5 35.5q-85 14 -130 33t-66.5 55.5t-21.5 103.5q0 88 52.5 131.5
t164.5 43.5q78 0 199 -15l-4 -36q-151 18 -196 18q-177 0 -177 -141q0 -56 11.5 -81.5t49 -41t128.5 -33.5q108 -19 155 -65.5t47 -134.5q0 -56 -22 -106t-69.5 -81t-119.5 -31h-253q-76 0 -131 27.5zM245 292l-194 -38l-8 22l50 13q-31 27 -31 65q0 34 23.5 58.5t61.5 24.5
q23 0 43 -8.5t27 -15.5l-8 -23q-6 5 -19.5 10t-29.5 5q-28 0 -46 -18t-18 -43q0 -29 24 -47l116 31z" />
    <glyph glyph-name="uni0627" unicode="&#x627;" horiz-adv-x="226" 
d="M97 730h39v-730h-39v730z" />
    <glyph glyph-name="uni0628" unicode="&#x628;" horiz-adv-x="714" 
d="M54 0zM627 500v-500h-332q-104 0 -156.5 17.5t-68.5 47.5t-16 78q0 39 9 108.5t22 136.5l28 -1l-10 -83q-15 -112 -15 -152q0 -52 20.5 -77t64.5 -33t131 -8h284v466h39zM336 -80h44v-53h-44v53z" />
    <glyph glyph-name="uni0629" unicode="&#x629;" horiz-adv-x="520" 
d="M40 0zM342.5 506.5q69.5 -3.5 111.5 -6.5v-500h-199q-84 0 -131 27.5t-65.5 81t-18.5 140.5q0 133 44.5 197t150.5 64q38 0 107.5 -3.5zM96.5 127q17.5 -47 59.5 -70t116 -23h143v434q-124 7 -157 7q-97 0 -138 -53.5t-41 -169.5q0 -78 17.5 -125zM166 650h58v-57h-58v57
zM273 650h58v-57h-58v57z" />
    <glyph glyph-name="uni062A" unicode="&#x62a;" horiz-adv-x="714" 
d="M54 0zM627 500v-500h-332q-104 0 -156.5 17.5t-68.5 47.5t-16 78q0 39 9 108.5t22 136.5l28 -1l-10 -83q-15 -112 -15 -152q0 -52 20.5 -77t64.5 -33t131 -8h284v466h39zM277 557h58v-57h-58v57zM384 557h58v-57h-58v57z" />
    <glyph glyph-name="uni062B" unicode="&#x62b;" horiz-adv-x="714" 
d="M54 0zM627 500v-500h-332q-104 0 -156.5 17.5t-68.5 47.5t-16 78q0 39 9 108.5t22 136.5l28 -1l-10 -83q-15 -112 -15 -152q0 -52 20.5 -77t64.5 -33t131 -8h284v466h39zM327 672h61v-61h-61v61zM275 560h58v-60h-58v60zM382 560h58v-60h-58v60z" />
    <glyph glyph-name="uni062C" unicode="&#x62c;" horiz-adv-x="526" 
d="M40 0zM467 -292q-122 -24 -197 -24q-114 0 -172 54t-58 160q0 99 50 145.5t150 46.5q64 0 114 -16t73 -36v322q0 54 -32 82.5t-89 28.5q-30 0 -95 -9t-105 -17l-2 35l49 9q43 8 88 14.5t72 6.5q58 0 106 -36.5t47 -138.5v-335h-39q-29 20 -79 36.5t-109 16.5
q-78 0 -117.5 -36t-39.5 -119q0 -181 197 -181q69 0 183 24zM287 -122h58v-60h-58v60z" />
    <glyph glyph-name="uni062D" unicode="&#x62d;" horiz-adv-x="526" 
d="M467 -292q-122 -24 -197 -24q-114 0 -172 54t-58 160q0 99 50 145.5t150 46.5q64 0 114 -16t73 -36v322q0 54 -32 82.5t-89 28.5q-30 0 -95 -9t-105 -17l-2 35l49 9q43 8 88 14.5t72 6.5q58 0 106 -36.5t47 -138.5v-335h-39q-29 20 -79 36.5t-109 16.5q-78 0 -117.5 -36
t-39.5 -119q0 -181 197 -181q69 0 183 24z" />
    <glyph glyph-name="uni062E" unicode="&#x62e;" horiz-adv-x="526" 
d="M40 0zM467 -292q-122 -24 -197 -24q-114 0 -172 54t-58 160q0 99 50 145.5t150 46.5q64 0 114 -16t73 -36v322q0 54 -32 82.5t-89 28.5q-30 0 -95 -9t-105 -17l-2 35l49 9q43 8 88 14.5t72 6.5q58 0 106 -36.5t47 -138.5v-335h-39q-29 20 -79 36.5t-109 16.5
q-78 0 -117.5 -36t-39.5 -119q0 -181 197 -181q69 0 183 24zM237 646h44v-53h-44v53z" />
    <glyph glyph-name="uni062F" unicode="&#x62f;" horiz-adv-x="470" 
d="M334 449.5q73 -70.5 73 -251.5v-198h-367v34h328v169q0 160 -63 222t-147 62h-67l-2 25q-3 2 20.5 5t49.5 3q102 0 175 -70.5z" />
    <glyph glyph-name="uni0630" unicode="&#x630;" horiz-adv-x="470" 
d="M40 0zM334 449.5q73 -70.5 73 -251.5v-198h-367v34h328v169q0 160 -63 222t-147 62h-67l-2 25q-3 2 20.5 5t49.5 3q102 0 175 -70.5zM111 673h44v-53h-44v53z" />
    <glyph glyph-name="uni0631" unicode="&#x631;" horiz-adv-x="357" 
d="M61 -246l-21 2v33l32 -2q30 -3 50 -3q58 0 87.5 47t29.5 130v537h39v-520q0 -116 -40 -172t-123 -56q-20 0 -54 4z" />
    <glyph glyph-name="uni0632" unicode="&#x632;" horiz-adv-x="357" 
d="M40 0zM61 -246l-21 2v33l32 -2q30 -3 50 -3q58 0 87.5 47t29.5 130v537h39v-520q0 -116 -40 -172t-123 -56q-20 0 -54 4zM234 646h44v-53h-44v53z" />
    <glyph glyph-name="uni0633" unicode="&#x633;" horiz-adv-x="1111" 
d="M1024.5 382.5q10.5 -61.5 10.5 -104.5v-278h-173q-26 0 -52 10t-58 36q-31 -46 -91 -46h-144v-40q0 -78 -37.5 -124.5t-89.5 -65t-100 -18.5q-52 0 -109.5 19t-99 63.5t-41.5 116.5q0 66 37 318l39 -2q-14 -87 -24 -177t-10 -126q0 -58 30.5 -98.5t76.5 -60.5t92 -20
q47 0 93 20.5t75 59t29 88.5v497h39v-416h134q93 0 93 159v257h39v-256q0 -74 -16 -117q18 -17 47 -30t57 -13h125v270q0 50 -23 194l27 1q14 -55 24.5 -116.5z" />
    <glyph glyph-name="uni0634" unicode="&#x634;" horiz-adv-x="1111" 
d="M40 0zM1024.5 382.5q10.5 -61.5 10.5 -104.5v-278h-173q-26 0 -52 10t-58 36q-31 -46 -91 -46h-144v-40q0 -78 -37.5 -124.5t-89.5 -65t-100 -18.5q-52 0 -109.5 19t-99 63.5t-41.5 116.5q0 66 37 318l39 -2q-14 -87 -24 -177t-10 -126q0 -58 30.5 -98.5t76.5 -60.5
t92 -20q47 0 93 20.5t75 59t29 88.5v497h39v-416h134q93 0 93 159v257h39v-256q0 -74 -16 -117q18 -17 47 -30t57 -13h125v270q0 50 -23 194l27 1q14 -55 24.5 -116.5zM730 765h61v-61h-61v61zM678 653h58v-60h-58v60zM785 653h58v-60h-58v60z" />
    <glyph glyph-name="uni0635" unicode="&#x635;" horiz-adv-x="1088" 
d="M1028 0h-511v-40q0 -78 -37.5 -124.5t-89.5 -65t-101 -18.5q-52 0 -109.5 19t-98.5 64.5t-41 118.5q0 61 37 315l38 -2q-33 -233 -33 -301q0 -59 30.5 -99.5t77 -60.5t91.5 -20q47 0 92.5 20.5t75 58.5t29.5 88v547h39v-160q45 56 81.5 91t85.5 57t113 22
q126 0 178.5 -77.5t52.5 -181.5v-251zM656 429q-62 -47 -116 -114q-14 -17 -23 -26v-255h472v216q0 97 -46.5 161.5t-138.5 64.5q-86 0 -148 -47z" />
    <glyph glyph-name="uni0636" unicode="&#x636;" horiz-adv-x="1088" 
d="M40 0zM1028 0h-511v-40q0 -78 -37.5 -124.5t-89.5 -65t-101 -18.5q-52 0 -109.5 19t-98.5 64.5t-41 118.5q0 61 37 315l38 -2q-33 -233 -33 -301q0 -59 30.5 -99.5t77 -60.5t91.5 -20q47 0 92.5 20.5t75 58.5t29.5 88v547h39v-160q45 56 81.5 91t85.5 57t113 22
q126 0 178.5 -77.5t52.5 -181.5v-251zM656 429q-62 -47 -116 -114q-14 -17 -23 -26v-255h472v216q0 97 -46.5 161.5t-138.5 64.5q-86 0 -148 -47zM722 646h44v-53h-44v53z" />
    <glyph glyph-name="uni0637" unicode="&#x637;" horiz-adv-x="697" 
d="M584.5 432.5q52.5 -77.5 52.5 -181.5v-251h-604v34h54v696h39v-390q45 56 81.5 91t85.5 57t113 22q126 0 178.5 -77.5zM303 450q-51 -26 -85 -59t-70 -76q-11 -15 -22 -26v-255h472v216q0 97 -46.5 161.5t-137.5 64.5q-60 0 -111 -26z" />
    <glyph glyph-name="uni0638" unicode="&#x638;" horiz-adv-x="697" 
d="M33 0zM584.5 432.5q52.5 -77.5 52.5 -181.5v-251h-604v34h54v696h39v-390q45 56 81.5 91t85.5 57t113 22q126 0 178.5 -77.5zM303 450q-51 -26 -85 -59t-70 -76q-11 -15 -22 -26v-255h472v216q0 97 -46.5 161.5t-137.5 64.5q-60 0 -111 -26zM330 646h44v-53h-44v53z" />
    <glyph glyph-name="uni0639" unicode="&#x639;" horiz-adv-x="491" 
d="M481 -289q-127 -27 -211 -27q-230 0 -230 218q0 35 5.5 67t33.5 65.5t86 47.5q-28 38 -43 92t-15 108q0 227 192 227q44 0 93 -12.5t87 -36.5l-1 -30q-1 5 -29.5 16t-67.5 20t-75 9q-157 0 -157 -198q0 -61 17.5 -107t53.5 -81q7 1 22 1q64 0 104.5 -14.5t69.5 -37.5v-38
q-31 21 -77 37t-103 16q-78 0 -117.5 -36.5t-39.5 -118.5q0 -90 48.5 -135.5t151.5 -45.5q74 0 196 26z" />
    <glyph glyph-name="uni063A" unicode="&#x63a;" horiz-adv-x="491" 
d="M40 0zM481 -289q-127 -27 -211 -27q-230 0 -230 218q0 35 5.5 67t33.5 65.5t86 47.5q-28 38 -43 92t-15 108q0 227 192 227q44 0 93 -12.5t87 -36.5l-1 -30q-1 5 -29.5 16t-67.5 20t-75 9q-157 0 -157 -198q0 -61 17.5 -107t53.5 -81q7 1 22 1q64 0 104.5 -14.5
t69.5 -37.5v-38q-31 21 -77 37t-103 16q-78 0 -117.5 -36.5t-39.5 -118.5q0 -90 48.5 -135.5t151.5 -45.5q74 0 196 26zM289 646h44v-53h-44v53z" />
    <glyph glyph-name="uni0640" unicode="&#x640;" horiz-adv-x="250" 
d="M0 34h250v-34h-250v34z" />
    <glyph glyph-name="uni0641" unicode="&#x641;" horiz-adv-x="929" 
d="M40 0zM862 491v-491h-581q-104 0 -156.5 17.5t-68.5 47t-16 77.5q0 41 10 112t23 134l28 -1l-4 -26q-23 -147 -23 -209q0 -52 20.5 -77t64.5 -33t131 -8h247q-22 36 -28.5 78t-6.5 111q0 113 17 170.5t62.5 81.5t136.5 24q71 0 132 -7zM823 462q-72 6 -114 6
q-70 0 -107 -24t-50.5 -72t-13.5 -129q0 -93 13 -142t31 -67h241v428zM711 646h44v-53h-44v53z" />
    <glyph glyph-name="uni0642" unicode="&#x642;" horiz-adv-x="826" 
d="M40 0zM749 491v-527q0 -94 -58.5 -144.5t-153.5 -50.5h-281q-96 0 -156 50.5t-60 144.5q0 73 33 263l38 -6q-16 -99 -22.5 -151.5t-6.5 -86.5q0 -87 45.5 -133.5t133.5 -46.5h269q90 0 135 46.5t45 134.5v16h-159q-63 0 -98.5 22t-50.5 72t-15 138q0 87 16 145.5t59 91
t120 32.5q22 0 72.5 -3t82.5 -6zM710 34v428l-56 4q-47 4 -60 4q-95 0 -131.5 -57t-36.5 -176q0 -76 14 -120t45.5 -63.5t86.5 -19.5h138zM511 650h58v-57h-58v57zM618 650h58v-57h-58v57z" />
    <glyph glyph-name="uni0643" unicode="&#x643;" horiz-adv-x="733" 
d="M57 0zM636 730v-730h-338q-104 0 -156.5 17.5t-68.5 47.5t-16 78q0 35 8 95.5t19 121.5l29 -1l-4 -29q-19 -131 -19 -178q0 -52 20.5 -77t65 -33t131.5 -8h290v696h39zM430 401l-194 -38l-8 22l50 13q-31 27 -31 65q0 34 23.5 58.5t61.5 24.5q23 0 43 -8.5t27 -15.5
l-8 -23q-6 5 -19.5 10t-29.5 5q-28 0 -46 -18t-18 -43q0 -29 24 -47l116 31z" />
    <glyph glyph-name="uni0644" unicode="&#x644;" horiz-adv-x="613" 
d="M161.5 -224.5q-55.5 23.5 -88.5 68t-33 104.5q0 39 13 134t30 190l39 -2q-18 -113 -29 -202t-11 -121q0 -49 27 -85.5t73 -56t101 -19.5q79 0 136.5 39.5t57.5 122.5v782h39v-787q0 -69 -34.5 -111.5t-87.5 -61t-111 -18.5q-66 0 -121.5 23.5z" />
    <glyph glyph-name="uni0645" unicode="&#x645;" horiz-adv-x="572" 
d="M443 453.5q62 -57.5 62 -203.5v-250h-321q-110 0 -110 -136q0 -67 27 -190h-32q-13 65 -20 108.5t-7 86.5q0 135 83 160q-14 88 -14 212q0 77 6 144t14 103q22 9 63.5 16t82.5 7q104 0 166 -57.5zM466 34v216q0 124 -53 175t-148 51q-48 0 -97 -11q-15 -105 -15 -224
q0 -60 4.5 -117t9.5 -90h5h294z" />
    <glyph glyph-name="uni0646" unicode="&#x646;" horiz-adv-x="580" 
d="M40 0zM161.5 -224.5q-55.5 23.5 -88.5 68t-33 104.5q0 39 13 134t30 190l39 -2q-18 -113 -29 -202t-11 -121q0 -49 27 -85.5t73 -56t101 -19.5q79 0 136.5 39.5t57.5 122.5v552h39v-557q0 -69 -34.5 -111.5t-87.5 -61t-111 -18.5q-66 0 -121.5 23.5zM264 553h44v-53h-44
v53z" />
    <glyph glyph-name="uni0647" unicode="&#x647;" horiz-adv-x="520" 
d="M342.5 506.5q69.5 -3.5 111.5 -6.5v-500h-199q-84 0 -131 27.5t-65.5 81t-18.5 140.5q0 133 44.5 197t150.5 64q38 0 107.5 -3.5zM96.5 127q17.5 -47 59.5 -70t116 -23h143v434q-124 7 -157 7q-97 0 -138 -53.5t-41 -169.5q0 -78 17.5 -125z" />
    <glyph glyph-name="uni0648" unicode="&#x648;" horiz-adv-x="472" 
d="M323 513.5q51 -4.5 82 -10.5v-458q0 -126 -18.5 -189.5t-50.5 -83.5t-83 -20q-34 0 -136 12v33q75 -11 135 -11q37 0 61.5 13t40 59.5t15.5 141.5h-168q-68 0 -103.5 35t-47 93t-11.5 144q0 74 14 126.5t59 86t131 33.5q29 0 80 -4.5zM87.5 149.5q9.5 -48.5 42 -82
t95.5 -33.5h141v442l-2 1q-66 8 -106 8q-74 0 -113.5 -28.5t-53 -76t-13.5 -116.5q0 -66 9.5 -114.5z" />
    <glyph glyph-name="uni0649" unicode="&#x649;" horiz-adv-x="806" 
d="M151 -220.5q-55 27.5 -83 72.5t-28 96q0 26 7 91.5t18 143.5l39 -6q-25 -163 -25 -214q0 -53 28 -93.5t73.5 -62t96.5 -21.5l256 -2q56 0 96 27.5t60 69.5t20 85q0 49 -13.5 79.5t-51 52t-110.5 35.5q-85 14 -130 33t-66.5 55.5t-21.5 103.5q0 88 52.5 131.5t164.5 43.5
q78 0 199 -15l-4 -36q-151 18 -196 18q-177 0 -177 -141q0 -56 11.5 -81.5t49 -41t128.5 -33.5q108 -19 155 -65.5t47 -134.5q0 -56 -22 -106t-69.5 -81t-119.5 -31h-253q-76 0 -131 27.5z" />
    <glyph glyph-name="uni064A" unicode="&#x64a;" horiz-adv-x="806" 
d="M40 0zM151 -220.5q-55 27.5 -83 72.5t-28 96q0 26 7 91.5t18 143.5l39 -6q-25 -163 -25 -214q0 -53 28 -93.5t73.5 -62t96.5 -21.5l256 -2q56 0 96 27.5t60 69.5t20 85q0 49 -13.5 79.5t-51 52t-110.5 35.5q-85 14 -130 33t-66.5 55.5t-21.5 103.5q0 88 52.5 131.5
t164.5 43.5q78 0 199 -15l-4 -36q-151 18 -196 18q-177 0 -177 -141q0 -56 11.5 -81.5t49 -41t128.5 -33.5q108 -19 155 -65.5t47 -134.5q0 -56 -22 -106t-69.5 -81t-119.5 -31h-253q-76 0 -131 27.5zM303 -320h58v-57h-58v57zM410 -320h58v-57h-58v57z" />
    <glyph glyph-name="uni064B" unicode="&#x64b;" horiz-adv-x="0" 
d="M0 691zM-102 728l204 40v-37l-204 -40v37zM-102 812l204 40v-37l-204 -40v37z" />
    <glyph glyph-name="uni064C" unicode="&#x64c;" horiz-adv-x="0" 
d="M98 790l-7 -1v-1h-1l-195 -38q-6 13 -15.5 49.5t-11.5 44.5l25 9l23 -72l46 12q-15 34 -15 67q0 29 15.5 47t51.5 18q39 0 62 -20t23 -62q0 -13 -1 -20v-33zM-23 859q0 -24 17 -58l70 18q4 14 4 28q0 21 -10.5 35t-37.5 14q-43 0 -43 -37zM61 809zM6 782h-1q1 -1 1 0z
" />
    <glyph glyph-name="uni064D" unicode="&#x64d;" horiz-adv-x="0" 
d="M0 0zM-103 -34l203 40v-36l-203 -40v36zM-103 -124l203 40v-36l-203 -40v36z" />
    <glyph glyph-name="uni064E" unicode="&#x64e;" horiz-adv-x="0" 
d="M-102 728l204 40v-37l-204 -40v37z" />
    <glyph glyph-name="uni064F" unicode="&#x64f;" horiz-adv-x="0" 
d="M98 790l-7 -1v-1h-1l-195 -38v26l67 17q-15 34 -15 67q0 29 15.5 47t51.5 18q39 0 62 -20t23 -62q0 -13 -1 -20v-33zM-23 859q0 -24 17 -58l70 18q4 14 4 28q0 21 -10.5 35t-37.5 14q-43 0 -43 -37zM61 809zM6 782h-1q1 -1 1 0z" />
    <glyph glyph-name="uni0650" unicode="&#x650;" horiz-adv-x="0" 
d="M-103 -34l203 40v-36l-203 -40v36z" />
    <glyph glyph-name="uni0651" unicode="&#x651;" horiz-adv-x="0" 
d="M-55 685q-25 0 -36 12t-11 37q0 24 2 49l24 6v-40q0 -16 7.5 -27.5t24.5 -8.5q14 1 21.5 12.5t7.5 28.5v33l31 6v-33q0 -12 11 -21t25 -5l23 5v82l24 5q3 -19 3 -49v-57l-51 -10q-12 -2 -17 -2q-13 0 -22 5.5t-11 14.5q0 -15 -4.5 -25t-27.5 -16q-9 -2 -24 -2z" />
    <glyph glyph-name="uni0652" unicode="&#x652;" horiz-adv-x="0" 
d="M-58.5 718q-23.5 26 -23.5 63q0 35 23.5 61t57.5 26q35 0 59.5 -26t24.5 -61q0 -37 -24.5 -63t-59.5 -26q-34 0 -57.5 26zM37.5 738q15.5 18 15.5 43q0 23 -15.5 40t-36.5 17q-22 0 -37.5 -17t-15.5 -40q0 -25 15.5 -43t37.5 -18q21 0 36.5 18z" />
    <glyph glyph-name="uni0653" unicode="&#x653;" horiz-adv-x="0" 
d="M-1 781q-26 11 -41.5 17t-23.5 6q-22 0 -55 -32l-9 -5l-6 24q16 19 36 33t37 14q9 0 22 -4t42 -18q51 -21 61 -21q9 0 26.5 10.5t26.5 19.5l7 6l7 -24q-16 -21 -33.5 -33.5t-30.5 -12.5q-20 0 -66 20z" />
    <glyph glyph-name="uni0654" unicode="&#x654;" horiz-adv-x="0" 
d="M103 799l-194 -38l-8 22l50 13q-31 27 -31 65q0 34 23.5 58.5t61.5 24.5q23 0 43 -8.5t27 -15.5l-8 -23q-6 5 -19.5 10t-29.5 5q-28 0 -46 -18t-18 -43q0 -29 24 -47l116 31z" />
    <glyph glyph-name="uni0655" unicode="&#x655;" horiz-adv-x="0" 
d="M105 -203l-194 -38l-8 22l49 13q-30 26 -30 65q0 34 23.5 58.5t61.5 24.5q23 0 43 -9t26 -15l-8 -24q-6 5 -19 10.5t-29 5.5q-28 0 -46 -18t-18 -43q0 -28 23 -48l117 32z" />
    <glyph glyph-name="uni0656" unicode="&#x656;" horiz-adv-x="0" 
d="M-20 22l40 16v-167l-40 -15v166z" />
    <glyph glyph-name="uni0658" unicode="&#x658;" horiz-adv-x="0" 
d="M-64.5 693q-22.5 21 -22.5 51q0 29 15 117l22 -1l-6 -38q-9 -54 -9 -74q0 -27 18 -42t49 -15q28 0 46 13.5t18 40.5v201h21v-205q0 -30 -21.5 -49.5t-63.5 -19.5q-44 0 -66.5 21z" />
    <glyph glyph-name="uni0660" unicode="&#x660;" horiz-adv-x="237" 
d="M80 255h77v-104h-77v104z" />
    <glyph glyph-name="uni0661" unicode="&#x661;" horiz-adv-x="302" 
d="M132 660h39v-660h-39v660z" />
    <glyph glyph-name="uni0662" unicode="&#x662;" horiz-adv-x="496" 
d="M123 660h39v-136q0 -83 29 -120.5t89 -37.5q70 0 96.5 39t26.5 121v134h39v-138q0 -99 -45 -144t-122 -45q-84 0 -113 57v-390h-39v660z" />
    <glyph glyph-name="uni0663" unicode="&#x663;" horiz-adv-x="687" 
d="M118 660h38v-182q0 -51 17 -82t74 -31t76 31.5t19 80.5v183h41v-181q0 -113 92 -113q50 0 68.5 30t18.5 82v182h46v-184q0 -69 -31 -107t-96 -38q-42 0 -77 15.5t-46 46.5q-11 -32 -37.5 -47t-61.5 -15q-34 0 -61.5 14.5t-40.5 47.5v-393h-39v660z" />
    <glyph glyph-name="uni0664" unicode="&#x664;" horiz-adv-x="498" 
d="M428 34v-34h-214q-73 0 -104.5 31.5t-31.5 72.5q0 22 8 46t59 75.5t164 118.5q-7 -1 -20 -1q-52 0 -92.5 24t-63 64.5t-22.5 87.5q0 65 47.5 101.5t146.5 36.5q36 0 63 -4t36 -9l-1 -32q-75 10 -110 10q-67 0 -107 -27t-40 -82q0 -36 17 -67.5t48.5 -50t72.5 -18.5h105
l-5 -43q-122 -66 -193.5 -120.5t-71.5 -110.5q0 -29 23 -49t70 -20h216z" />
    <glyph glyph-name="uni0665" unicode="&#x665;" horiz-adv-x="588" 
d="M125 96.5q-50 97.5 -50 232.5q0 130 47.5 234t170.5 104q125 0 172.5 -104t47.5 -234q0 -135 -50.5 -232.5t-169.5 -97.5q-118 0 -168 97.5zM432.5 120q41.5 88 41.5 210q0 118 -39 211.5t-142 93.5q-102 0 -140.5 -93t-38.5 -212q0 -122 41 -210t138 -88q98 0 139.5 88z
" />
    <glyph glyph-name="uni0666" unicode="&#x666;" horiz-adv-x="426" 
d="M260 629h-227v31h266v-660h-39v629z" />
    <glyph glyph-name="uni0667" unicode="&#x667;" horiz-adv-x="581" 
d="M534 647l-214 -647h-72l-206 647h47l198 -621l-1 2h1q9 32 85 262.5t119 356.5h43zM287 25z" />
    <glyph glyph-name="uni0668" unicode="&#x668;" horiz-adv-x="581" 
d="M491 0q-22 64 -108 324.5t-96 293.5h-1l1 2l-198 -620h-47l206 647h72l214 -647h-43zM287 621z" />
    <glyph glyph-name="uni0669" unicode="&#x669;" horiz-adv-x="556" 
d="M396 268q-31 -10 -70.5 -15.5t-72.5 -5.5q-121 0 -163.5 65t-42.5 144q0 65 31 111t84.5 69.5t121.5 23.5q32 0 75 -5t76 -11v-644h-39v268zM324.5 283.5q38.5 5.5 71.5 13.5v314q-5 3 -44 10.5t-81 7.5q-84 0 -134.5 -44.5t-50.5 -129.5q0 -58 24 -98t63.5 -59.5
t85.5 -19.5q27 0 65.5 5.5z" />
    <glyph glyph-name="uni066A" unicode="&#x66a;" 
d="M37 0zM65 433q-28 35 -28 104q0 132 104 132q51 0 77 -33.5t26 -98.5q0 -69 -27.5 -104t-75.5 -35t-76 35zM175 -1l185 670l31 -9l-185 -669zM192.5 455.5q16.5 26.5 16.5 83.5q0 52 -15.5 75t-51.5 23t-52 -23t-16 -75q0 -56 17 -83t51 -27t50.5 26.5zM345 26.5
q-27 35.5 -27 104.5q0 131 103 131q51 0 76.5 -33t25.5 -97q0 -69 -28 -105t-76 -36q-47 0 -74 35.5zM473 48.5q15 25.5 15 80.5t-15 78.5t-52 23.5t-53 -23t-16 -76q0 -57 16.5 -83t52.5 -26q37 0 52 25.5z" />
    <glyph glyph-name="uni066B" unicode="&#x66b;" horiz-adv-x="153" 
d="M87 87h39l-51 -210h-32z" />
    <glyph glyph-name="uni066C" unicode="&#x66c;" horiz-adv-x="146" 
d="M70 67h36l-39 -148h-26z" />
    <glyph glyph-name="uni066D" unicode="&#x66d;" horiz-adv-x="417" 
d="M193 510l-109 -79l-21 27l110 80l-108 79l21 28l109 -81l42 129l32 -10l-41 -130h134v-34h-138l43 -128l-33 -11z" />
    <glyph glyph-name="uni066E" unicode="&#x66e;" horiz-adv-x="714" 
d="M627 500v-500h-332q-104 0 -156.5 17.5t-68.5 47.5t-16 78q0 39 9 108.5t22 136.5l28 -1l-10 -83q-15 -112 -15 -152q0 -52 20.5 -77t64.5 -33t131 -8h284v466h39z" />
    <glyph glyph-name="uni066F" unicode="&#x66f;" horiz-adv-x="826" 
d="M749 491v-527q0 -94 -58.5 -144.5t-153.5 -50.5h-281q-96 0 -156 50.5t-60 144.5q0 73 33 263l38 -6q-16 -99 -22.5 -151.5t-6.5 -86.5q0 -87 45.5 -133.5t133.5 -46.5h269q90 0 135 46.5t45 134.5v16h-159q-63 0 -98.5 22t-50.5 72t-15 138q0 87 16 145.5t59 91
t120 32.5q22 0 72.5 -3t82.5 -6zM710 34v428l-56 4q-47 4 -60 4q-95 0 -131.5 -57t-36.5 -176q0 -76 14 -120t45.5 -63.5t86.5 -19.5h138z" />
    <glyph glyph-name="uni0670" unicode="&#x670;" horiz-adv-x="0" 
d="M-18 820l36 15v-166l-36 -16v167z" />
    <glyph glyph-name="uni0671" unicode="&#x671;" horiz-adv-x="226" 
d="M0 0zM97 644h39v-644h-39v644zM-5 720h48q0 40 30.5 70.5t81.5 30.5q38 0 60.5 -22t22.5 -79v-27h-243v27zM210 720q0 45 -18 60.5t-45 15.5q-35 0 -60 -19.5t-25 -56.5h148z" />
    <glyph glyph-name="uni0679" unicode="&#x679;" horiz-adv-x="714" 
d="M54 0zM627 500v-500h-332q-104 0 -156.5 17.5t-68.5 47.5t-16 78q0 39 9 108.5t22 136.5l28 -1l-10 -83q-15 -112 -15 -152q0 -52 20.5 -77t64.5 -33t131 -8h284v466h39zM452 571v-71h-193v33h19v169h35v-106q14 27 27.5 39.5t42.5 12.5q69 0 69 -77zM331.5 587
q-18.5 -23 -18.5 -49v-5h102v38q0 19 -7.5 29t-26.5 10q-31 0 -49.5 -23z" />
    <glyph glyph-name="uni067E" unicode="&#x67e;" horiz-adv-x="714" 
d="M54 0zM627 500v-500h-332q-104 0 -156.5 17.5t-68.5 47.5t-16 78q0 39 9 108.5t22 136.5l28 -1l-10 -83q-15 -112 -15 -152q0 -52 20.5 -77t64.5 -33t131 -8h284v466h39zM275 -80h58v-60h-58v60zM382 -80h58v-60h-58v60zM327 -191h61v-61h-61v61z" />
    <glyph glyph-name="uni0686" unicode="&#x686;" horiz-adv-x="548" 
d="M425.5 473.5q48.5 -36.5 47.5 -138.5v-335h-39q-29 20 -80 36.5t-108 16.5q-78 0 -117.5 -36t-39.5 -119q0 -181 196 -181l7 -34l-15 1q-114 0 -172 54t-58 160q0 99 50 145.5t150 46.5q50 0 93.5 -12t93.5 -40v322q0 54 -32.5 82.5t-89.5 28.5q-30 0 -95.5 -9
t-103.5 -17l-3 35q9 2 21.5 4t27.5 5q118 21 161 21q57 0 105.5 -36.5zM250 -88h68v-78h-68v78zM402 -88h68v-78h-68v78zM328 -207h61v-71h-61v71z" />
    <glyph glyph-name="uni0688" unicode="&#x688;" horiz-adv-x="470" 
d="M34 0zM334 449.5q73 -70.5 73 -251.5v-198h-367v34h328v169q0 160 -63 222t-147 62h-67l-2 25q-3 2 20.5 5t49.5 3q102 0 175 -70.5zM227 691v-71h-193v33h19v169h35v-106q14 27 27.5 39.5t42.5 12.5q69 0 69 -77zM106.5 707q-18.5 -23 -18.5 -49v-5h102v38q0 19 -7.5 29
t-26.5 10q-31 0 -49.5 -23z" />
    <glyph glyph-name="uni0691" unicode="&#x691;" horiz-adv-x="357" 
d="M40 0zM61 -246l-21 2v33l32 -2q30 -3 50 -3q58 0 87.5 47t29.5 130v537h39v-520q0 -116 -40 -172t-123 -56q-20 0 -54 4zM350 664v-71h-193v33h19v169h35v-106q14 27 27.5 39.5t42.5 12.5q69 0 69 -77zM229.5 680q-18.5 -23 -18.5 -49v-5h102v38q0 19 -7.5 29t-26.5 10
q-31 0 -49.5 -23z" />
    <glyph glyph-name="uni0698" unicode="&#x698;" horiz-adv-x="357" 
d="M40 0zM61 -246l-21 2v33l32 -2q30 -3 50 -3q58 0 87.5 47t29.5 130v537h39v-520q0 -116 -40 -172t-123 -56q-20 0 -54 4zM225 765h61v-61h-61v61zM173 653h58v-60h-58v60zM280 653h58v-60h-58v60z" />
    <glyph glyph-name="uni06A1" unicode="&#x6a1;" horiz-adv-x="929" 
d="M862 491v-491h-581q-104 0 -156.5 17.5t-68.5 47t-16 77.5q0 41 10 112t23 134l28 -1l-4 -26q-23 -147 -23 -209q0 -52 20.5 -77t64.5 -33t131 -8h247q-22 36 -28.5 78t-6.5 111q0 113 17 170.5t62.5 81.5t136.5 24q71 0 132 -7zM823 462q-72 6 -114 6q-70 0 -107 -24
t-50.5 -72t-13.5 -129q0 -93 13 -142t31 -67h241v428z" />
    <glyph glyph-name="uni06A4" unicode="&#x6a4;" horiz-adv-x="929" 
d="M40 0zM862 491v-491h-581q-104 0 -156.5 17.5t-68.5 47t-16 77.5q0 41 10 112t23 134l28 -1l-4 -26q-23 -147 -23 -209q0 -52 20.5 -77t64.5 -33t131 -8h247q-22 36 -28.5 78t-6.5 111q0 113 17 170.5t62.5 81.5t136.5 24q71 0 132 -7zM823 462q-72 6 -114 6
q-70 0 -107 -24t-50.5 -72t-13.5 -129q0 -93 13 -142t31 -67h241v428zM702 765h61v-61h-61v61zM650 653h58v-60h-58v60zM757 653h58v-60h-58v60z" />
    <glyph glyph-name="uni06A9" unicode="&#x6a9;" horiz-adv-x="747" 
d="M628 349q39 -48 39 -157v-192h-386q-104 0 -156.5 17.5t-68.5 47.5t-16 78q0 61 27 217l29 -1l-6 -48q-1 -9 -8.5 -66t-7.5 -93q0 -52 20.5 -77t64.5 -33t131 -8h338v159q0 68 -21 118.5t-86 51.5h-273l-39 53l47 92q17 33 56 89.5t79 107.5l25 -14q-61 -92 -81 -126
t-38 -68l-52 -100h272q72 0 111 -48z" />
    <glyph glyph-name="uni06AF" unicode="&#x6af;" horiz-adv-x="747" 
d="M40 0zM628 349q39 -48 39 -157v-192h-386q-104 0 -156.5 17.5t-68.5 47.5t-16 78q0 61 27 217l29 -1l-6 -48q-1 -9 -8.5 -66t-7.5 -93q0 -52 20.5 -77t64.5 -33t131 -8h338v159q0 68 -21 118.5t-86 51.5h-273l-39 53l47 92q17 33 56 89.5t79 107.5l25 -14
q-61 -92 -81 -126t-38 -68l-52 -100h272q72 0 111 -48zM174 467l27 55q15 30 58.5 91.5t84.5 110.5l20 -11q-42 -52 -92 -123.5t-61 -95.5l-23 -46z" />
    <glyph glyph-name="uni06BA" unicode="&#x6ba;" horiz-adv-x="580" 
d="M161.5 -224.5q-55.5 23.5 -88.5 68t-33 104.5q0 39 13 134t30 190l39 -2q-18 -113 -29 -202t-11 -121q0 -49 27 -85.5t73 -56t101 -19.5q79 0 136.5 39.5t57.5 122.5v552h39v-557q0 -69 -34.5 -111.5t-87.5 -61t-111 -18.5q-66 0 -121.5 23.5z" />
    <glyph glyph-name="uni06BE" unicode="&#x6be;" horiz-adv-x="714" 
d="M556 457q91 -63 91 -253v-204h-607v34h60v120q1 46 24 83.5t60 58.5t79 21q41 0 78.5 -19.5t61 -56.5t23.5 -87v-120h182v166q0 156 -75 220.5t-203 64.5q-46 0 -91 -5.5t-108 -16.5l-1 27q-5 0 29.5 8.5t81 15t92.5 6.5q132 0 223 -63zM175 250q-36 -34 -36 -82v-134
h248v133q0 49 -35 83t-88 34t-89 -34z" />
    <glyph glyph-name="uni06C1" unicode="&#x6c1;" horiz-adv-x="520" 
d="M40 0zM342.5 506.5q69.5 -3.5 111.5 -6.5v-500h-199q-84 0 -131 27.5t-65.5 81t-18.5 140.5q0 133 44.5 197t150.5 64q38 0 107.5 -3.5zM96.5 127q17.5 -47 59.5 -70t116 -23h143v434q-124 7 -157 7q-97 0 -138 -53.5t-41 -169.5q0 -78 17.5 -125z" />
    <glyph glyph-name="uni06C2" unicode="&#x6c2;" horiz-adv-x="520" 
d="M40 0zM342.5 506.5q69.5 -3.5 111.5 -6.5v-500h-199q-84 0 -131 27.5t-65.5 81t-18.5 140.5q0 133 44.5 197t150.5 64q38 0 107.5 -3.5zM96.5 127q17.5 -47 59.5 -70t116 -23h143v434q-124 7 -157 7q-97 0 -138 -53.5t-41 -169.5q0 -78 17.5 -125zM345 624l-194 -38
l-8 22l50 13q-31 27 -31 65q0 34 23.5 58.5t61.5 24.5q23 0 43 -8.5t27 -15.5l-8 -23q-6 5 -19.5 10t-29.5 5q-28 0 -46 -18t-18 -43q0 -29 24 -47l116 31z" />
    <glyph glyph-name="uni06C3" unicode="&#x6c3;" horiz-adv-x="520" 
d="M40 0zM342.5 506.5q69.5 -3.5 111.5 -6.5v-500h-199q-84 0 -131 27.5t-65.5 81t-18.5 140.5q0 133 44.5 197t150.5 64q38 0 107.5 -3.5zM96.5 127q17.5 -47 59.5 -70t116 -23h143v434q-124 7 -157 7q-97 0 -138 -53.5t-41 -169.5q0 -78 17.5 -125zM166 650h58v-57h-58v57
zM273 650h58v-57h-58v57z" />
    <glyph glyph-name="uni06CC" unicode="&#x6cc;" horiz-adv-x="806" 
d="M40 0zM151 -220.5q-55 27.5 -83 72.5t-28 96q0 26 7 91.5t18 143.5l39 -6q-25 -163 -25 -214q0 -53 28 -93.5t73.5 -62t96.5 -21.5l256 -2q56 0 96 27.5t60 69.5t20 85q0 49 -13.5 79.5t-51 52t-110.5 35.5q-85 14 -130 33t-66.5 55.5t-21.5 103.5q0 88 52.5 131.5
t164.5 43.5q78 0 199 -15l-4 -36q-151 18 -196 18q-177 0 -177 -141q0 -56 11.5 -81.5t49 -41t128.5 -33.5q108 -19 155 -65.5t47 -134.5q0 -56 -22 -106t-69.5 -81t-119.5 -31h-253q-76 0 -131 27.5z" />
    <glyph glyph-name="uni06D2" unicode="&#x6d2;" horiz-adv-x="748" 
d="M698 293v-91q0 -116 -58.5 -159t-166.5 -43h-381q-10 -22 -10 -67q0 -68 54.5 -106t180.5 -38h305v-34h-338q-139 0 -191 49.5t-52 134.5q0 31 7 61h-3l3 1q6 22 11 33h415q86 0 136.5 35t50.5 132v92h37z" />
    <glyph glyph-name="uni06D3" unicode="&#x6d3;" horiz-adv-x="748" 
d="M21 0zM698 293v-91q0 -116 -58.5 -159t-166.5 -43h-381q-10 -22 -10 -67q0 -68 54.5 -106t180.5 -38h305v-34h-338q-139 0 -191 49.5t-52 134.5q0 31 7 61h-3l3 1q6 22 11 33h415q86 0 136.5 35t50.5 132v92h37zM223 191l-194 -38l-8 22l50 13q-31 27 -31 65
q0 34 23.5 58.5t61.5 24.5q23 0 43 -8.5t27 -15.5l-8 -23q-6 5 -19.5 10t-29.5 5q-28 0 -46 -18t-18 -43q0 -29 24 -47l116 31z" />
    <glyph glyph-name="uni06D4" unicode="&#x6d4;" horiz-adv-x="189" 
d="M74 79h41v-79h-41v79z" />
    <glyph glyph-name="uni06F0" unicode="&#x6f0;" horiz-adv-x="237" 
d="M80 151zM80 255h77v-104h-77v104z" />
    <glyph glyph-name="uni06F1" unicode="&#x6f1;" horiz-adv-x="302" 
d="M132 0zM132 660h39v-660h-39v660z" />
    <glyph glyph-name="uni06F2" unicode="&#x6f2;" horiz-adv-x="496" 
d="M123 0zM123 660h39v-136q0 -83 29 -120.5t89 -37.5q70 0 96.5 39t26.5 121v134h39v-138q0 -99 -45 -144t-122 -45q-84 0 -113 57v-390h-39v660z" />
    <glyph glyph-name="uni06F3" unicode="&#x6f3;" horiz-adv-x="687" 
d="M118 0zM118 660h38v-182q0 -51 17 -82t74 -31t76 31.5t19 80.5v183h41v-181q0 -113 92 -113q50 0 68.5 30t18.5 82v182h46v-184q0 -69 -31 -107t-96 -38q-42 0 -77 15.5t-46 46.5q-11 -32 -37.5 -47t-61.5 -15q-34 0 -61.5 14.5t-40.5 47.5v-393h-39v660z" />
    <glyph glyph-name="uni06F4" unicode="&#x6f4;" horiz-adv-x="578" 
d="M547 602v-80q0 -101 -55 -145t-164 -44q-64 0 -103.5 13.5t-58.5 43.5v-390h-39v660h39v-136q0 -75 32 -112.5t101 -43.5q-19 20 -35 57.5t-16 83.5q0 43 21 62.5t78 19.5q34 0 74 -7l-2 -35q-52 4 -77 4q-46 0 -46 -53q0 -34 17.5 -70t41.5 -64q60 3 93.5 22t46.5 52.5
t13 85.5v76h39z" />
    <glyph glyph-name="uni06F5" unicode="&#x6f5;" horiz-adv-x="583" 
d="M96.5 45q-28.5 47 -28.5 126q0 74 26.5 144t76 125.5t114.5 85.5q-17 12 -60 46l-40 32l19 21q125 -75 193 -145.5t92.5 -140.5t24.5 -154q0 -110 -38 -148.5t-87 -38.5q-41 0 -63 24t-36 67q-23 -51 -48 -71t-59 -20q-58 0 -86.5 47zM243.5 44.5q12.5 15.5 23.5 43.5
q6 16 11 24t13 8t13.5 -7.5t11.5 -24.5q12 -28 25.5 -43.5t39.5 -15.5q39 0 66.5 39.5t27.5 109.5q0 80 -41.5 168t-120.5 161q-112 -55 -159 -147.5t-47 -183.5q0 -70 27.5 -108.5t68.5 -38.5q28 0 40.5 15.5z" />
    <glyph glyph-name="uni06F6" unicode="&#x6f6;" horiz-adv-x="487" 
d="M186 595q-40 -27 -40 -82q0 -36 17 -67.5t48.5 -50t72.5 -18.5h105l-5 -43q-122 -66 -193.5 -120.5t-71.5 -110.5l-41 1q0 22 8 46t59 75.5t164 118.5q-7 -1 -20 -1q-52 0 -92.5 24t-63 64.5t-22.5 87.5q0 65 47.5 101.5t146.5 36.5q36 0 63 -4t36 -9l-1 -32
q-75 10 -110 10q-67 0 -107 -27z" />
    <glyph glyph-name="uni06F7" unicode="&#x6f7;" horiz-adv-x="581" 
d="M42 0zM534 647l-214 -647h-72l-206 647h47l198 -621l-1 2h1q9 32 85 262.5t119 356.5h43zM287 25z" />
    <glyph glyph-name="uni06F8" unicode="&#x6f8;" horiz-adv-x="581" 
d="M42 0zM491 0q-22 64 -108 324.5t-96 293.5h-1l1 2l-198 -620h-47l206 647h72l214 -647h-43zM287 621z" />
    <glyph glyph-name="uni06F9" unicode="&#x6f9;" horiz-adv-x="556" 
d="M47 0zM396 268q-31 -10 -70.5 -15.5t-72.5 -5.5q-121 0 -163.5 65t-42.5 144q0 65 31 111t84.5 69.5t121.5 23.5q32 0 75 -5t76 -11v-644h-39v268zM324.5 283.5q38.5 5.5 71.5 13.5v314q-5 3 -44 10.5t-81 7.5q-84 0 -134.5 -44.5t-50.5 -129.5q0 -58 24 -98t63.5 -59.5
t85.5 -19.5q27 0 65.5 5.5z" />
    <glyph glyph-name="Wgrave" unicode="&#x1e80;" horiz-adv-x="857" 
d="M37 0zM37 700h37l141 -665h38l154 655h43l154 -655h38l141 665h35l-147 -700h-96l-147 640l-147 -640h-95zM316 892l16 30l192 -96l-17 -27z" />
    <glyph glyph-name="wgrave" unicode="&#x1e81;" horiz-adv-x="755" 
d="M36 0zM36 500h37l127 -468h11l148 458h38l147 -458h13l126 468h37l-135 -500h-69l-138 448l-139 -448h-68zM249 701l16 30l192 -95l-15 -27z" />
    <glyph glyph-name="Wacute" unicode="&#x1e82;" horiz-adv-x="857" 
d="M37 0zM37 700h37l141 -665h38l154 655h43l154 -655h38l141 665h35l-147 -700h-96l-147 640l-147 -640h-95zM334 826l192 96l16 -30l-191 -93z" />
    </font>
</defs>
</svg>
