<?xml version="1.0" standalone="no"?>
<!DOCTYPE svg PUBLIC "-//W3C//DTD SVG 1.1//EN" "http://www.w3.org/Graphics/SVG/1.1/DTD/svg11.dtd" >
<svg xmlns="http://www.w3.org/2000/svg" xmlns:xlink="http://www.w3.org/1999/xlink" version="1.1">
<metadata>
Created by FontForge 20170731 at Tue May 31 12:58:46 2016
 By Aleksey,,,
Copyright 2009 The Cairo Project Authors (gaber@gaberism.net)
</metadata>
<defs>
<font id="Cairo-Bold" horiz-adv-x="560" >
  <font-face 
    font-family="Cairo"
    font-weight="700"
    font-stretch="normal"
    units-per-em="1000"
    panose-1="0 0 8 0 0 0 0 0 0 0"
    ascent="800"
    descent="-200"
    x-height="500"
    cap-height="680"
    bbox="-224 -529 1718 1226"
    underline-thickness="50"
    underline-position="-150"
    unicode-range="U+000D-FEFC"
  />
<missing-glyph horiz-adv-x="235" 
 />
    <glyph glyph-name="uniFDF2" unicode="&#x627;&#xfedf;&#xfee0;&#xfeea;" horiz-adv-x="1517" arabic-form="isolated" 
d="M794 897l-76 -34v223l76 35v-224zM654.5 667q-13.5 19 -13.5 61q0 37 3 49l53 11v-65q0 -26 17 -24q24 4 24 33v46l39 8v-58q0 -8 6 -11t13 -2l17 3v91l50 11q5 -25 6.5 -40.5t1.5 -34.5v-74l-66 -13q-20 -3 -38 13q-7 -15 -22 -23t-33 -8q-12 0 -22 3q-22 5 -35.5 24z
M1052 700h134v-700h-878q-99 0 -156 21t-84.5 76.5t-27.5 161.5q0 101 26 154.5t84 75t163 21.5q56 0 134 -4t110 -9v-375h154v458h134v-458h207v578zM1427 700v-700h-134v700h134zM188.5 173.5q14.5 -29.5 44.5 -40.5t82 -11h108v261q-50 5 -105 5t-85.5 -11t-44.5 -38.5
t-14 -79.5q0 -56 14.5 -85.5z" />
    <glyph glyph-name="uniFEF5" unicode="&#xfedf;&#xfe82;" horiz-adv-x="638" arabic-form="isolated" 
d="M40 0zM569 700v-700h-529v122h126v443h134v-443h135v578h134zM269.5 641.5q-21.5 7.5 -39.5 14.5q-45 21 -55 21q-9 0 -23 -11.5t-17 -13.5l-15 -14l-23 76q18 19 39 32t42 13q20 0 73 -23q46 -20 52 -20q10 0 38 24l14 14l24 -77q-40 -43 -76 -43q-12 0 -33.5 7.5z" />
    <glyph glyph-name="uniFEF6" unicode="&#xfee0;&#xfe82;" horiz-adv-x="648" arabic-form="final" 
d="M40 0zM648 122v-122h-608v122h126v443h134v-443h135v578h134v-578h79zM269.5 641.5q-21.5 7.5 -39.5 14.5q-45 21 -55 21q-9 0 -23 -11.5t-17 -13.5l-15 -14l-23 76q18 19 39 32t42 13q20 0 73 -23q46 -20 52 -20q10 0 38 24l14 14l24 -77q-40 -43 -76 -43
q-12 0 -33.5 7.5z" />
    <glyph glyph-name="uniFEF7" unicode="&#xfedf;&#xfe84;" horiz-adv-x="638" arabic-form="isolated" 
d="M40 0zM569 700v-700h-529v122h126v443h134v-443h135v578h134zM343 670l-219 -43l-11 47l46 12q-39 33 -39 81q0 41 29.5 71t75.5 30q39 0 78 -24l-13 -60q-6 5 -17 9.5t-25 4.5q-23 0 -37.5 -15t-14.5 -36q0 -28 24 -45l109 29z" />
    <glyph glyph-name="uniFEF8" unicode="&#xfee0;&#xfe84;" horiz-adv-x="648" arabic-form="final" 
d="M40 0zM648 122v-122h-608v122h126v443h134v-443h135v578h134v-578h79zM343 670l-219 -43l-11 47l46 12q-39 33 -39 81q0 41 29.5 71t75.5 30q39 0 78 -24l-13 -60q-6 5 -17 9.5t-25 4.5q-23 0 -37.5 -15t-14.5 -36q0 -28 24 -45l109 29z" />
    <glyph glyph-name="uniFEF9" unicode="&#xfedf;&#xfe88;" horiz-adv-x="638" arabic-form="isolated" 
d="M40 0zM569 700v-700h-529v122h126v443h134v-443h135v578h134zM348 -278l-219 -43l-11 47l46 12q-39 33 -39 81q0 41 29.5 71t75.5 30q39 0 78 -24l-13 -60q-6 5 -17 9.5t-25 4.5q-23 0 -37.5 -15t-14.5 -36q0 -28 24 -45l109 29z" />
    <glyph glyph-name="uniFEFA" unicode="&#xfee0;&#xfe88;" horiz-adv-x="648" arabic-form="final" 
d="M40 0zM648 122v-122h-608v122h126v443h134v-443h135v578h134v-578h79zM348 -278l-219 -43l-11 47l46 12q-39 33 -39 81q0 41 29.5 71t75.5 30q39 0 78 -24l-13 -60q-6 5 -17 9.5t-25 4.5q-23 0 -37.5 -15t-14.5 -36q0 -28 24 -45l109 29z" />
    <glyph glyph-name="uniFEFB" unicode="&#xfedf;&#xfe8e;" horiz-adv-x="638" arabic-form="isolated" 
d="M569 700v-700h-529v122h126v443h134v-443h135v578h134z" />
    <glyph glyph-name="uniFEFC" unicode="&#xfee0;&#xfe8e;" horiz-adv-x="648" arabic-form="final" 
d="M648 122v-122h-608v122h126v443h134v-443h135v578h134v-578h79z" />
    <glyph glyph-name="uni06440671" unicode="&#xfedf;&#xfb51;" horiz-adv-x="638" 
d="M40 0zM569 700v-700h-529v122h126v443h134v-443h135v578h134zM111 697h40q0 25 15.5 52.5t43 45.5t59.5 18q39 0 62 -28.5t23 -87.5v-62h-243v62zM303 697q0 34 -10 49t-32 15q-28 0 -49 -19t-21 -45h112z" />
    <glyph glyph-name="uni06440671.fina" unicode="&#xfee0;&#xfb51;" horiz-adv-x="648" 
d="M40 0zM648 122v-122h-608v122h126v443h134v-443h135v578h134v-578h79zM111 697h40q0 25 15.5 52.5t43 45.5t59.5 18q39 0 62 -28.5t23 -87.5v-62h-243v62zM303 697q0 34 -10 49t-32 15q-28 0 -49 -19t-21 -45h112z" />
    <glyph glyph-name="uni066E.init" unicode="&#x66e;" horiz-adv-x="353" 
d="M283 500v-500h-283v122h149v378h134z" />
    <glyph glyph-name="uni066E.medi" unicode="&#x66e;" horiz-adv-x="433" 
d="M433 122v-122h-433v122h149v378h134v-378h150z" />
    <glyph glyph-name="uni066E.fina" unicode="&#x66e;" horiz-adv-x="921" 
d="M921 122v-122h-581q-87 0 -147.5 13t-99.5 55t-39 125q0 43 9.5 98.5t21.5 101.5l108 -6l-7 -63q-10 -73 -10 -100q0 -102 148 -102h314v378h134v-378h149z" />
    <glyph glyph-name="uni066F.init" unicode="&#x66f;" horiz-adv-x="607" 
d="M0 0zM557 486v-486h-557v122h107q-17 61 -17 138q0 91 28.5 143t86.5 74t153 22q84 0 147 -7zM231 173.5q5 -23.5 14 -51.5h178v255q-44 3 -69 3q-54 0 -80.5 -12t-37 -42t-10.5 -91q0 -38 5 -61.5z" />
    <glyph glyph-name="uni066F.medi" unicode="&#x66f;" horiz-adv-x="654" 
d="M0 0zM654 122v-122h-654v122h107q-17 61 -17 138q0 91 28.5 143t86.5 74t153 22q84 0 147 -7l52 -6v-364h97zM231 173.5q5 -23.5 14 -51.5h178v255q-44 3 -69 3q-54 0 -80.5 -12t-37 -42t-10.5 -91q0 -38 5 -61.5z" />
    <glyph glyph-name="uni066F.fina" unicode="&#x66f;" horiz-adv-x="967" 
d="M967 0h-123v-38q0 -64 -29 -118t-88.5 -87t-146.5 -33h-281q-88 0 -146 33t-85.5 87.5t-27.5 119.5q0 83 41 313l125 -21l-7 -47q-14 -88 -21.5 -143t-7.5 -88q0 -58 29.5 -95t99.5 -37h281q69 0 99.5 37t30.5 93v24h-124q-79 0 -122 16.5t-64 66.5t-21 152
q0 109 25.5 165.5t81.5 77.5t159 21q82 0 147 -7l52 -6v-364h123v-122zM523.5 158.5q10.5 -24.5 31.5 -30.5t64 -6h91v253q-30 2 -61 2q-53 0 -81.5 -11t-41.5 -41t-13 -88q0 -54 10.5 -78.5z" />
    <glyph glyph-name="uni06A1.init" unicode="&#x6a1;" horiz-adv-x="607" 
d="M557 486v-486h-557v122h107q-17 61 -17 138q0 91 28.5 143t86.5 74t153 22q84 0 147 -7zM231 173.5q5 -23.5 14 -51.5h178v255q-44 3 -69 3q-54 0 -80.5 -12t-37 -42t-10.5 -91q0 -38 5 -61.5z" />
    <glyph glyph-name="uni06A1.medi" unicode="&#x6a1;" horiz-adv-x="654" 
d="M654 122v-122h-654v122h107q-17 61 -17 138q0 91 28.5 143t86.5 74t153 22q84 0 147 -7l52 -6v-364h97zM231 173.5q5 -23.5 14 -51.5h178v255q-44 3 -69 3q-54 0 -80.5 -12t-37 -42t-10.5 -91q0 -38 5 -61.5z" />
    <glyph glyph-name="uni06A1.fina" unicode="&#x6a1;" horiz-adv-x="1053" 
d="M1053 122v-122h-727q-87 0 -147.5 13t-99.5 55.5t-39 125.5q0 43 9.5 97.5t21.5 101.5l108 -6q-7 -56 -8 -70q-9 -74 -9 -93q0 -102 148 -102h197q-17 61 -17 138q0 91 28.5 143t86.5 74t153 22q84 0 147 -7l52 -6v-364h96zM631 173.5q5 -23.5 14 -51.5h178v255
q-43 3 -69 3q-54 0 -80.5 -12t-37 -42t-10.5 -91q0 -38 5 -61.5z" />
    <glyph glyph-name="uni06BA.init" unicode="&#x6ba;" horiz-adv-x="353" 
d="M0 0zM283 500v-500h-283v122h149v378h134z" />
    <glyph glyph-name="uni06BA.medi" unicode="&#x6ba;" horiz-adv-x="433" 
d="M0 0zM433 122v-122h-433v122h149v378h134v-378h150z" />
    <glyph glyph-name="uni06C2.init" unicode="&#x6c2;" horiz-adv-x="353" 
d="M0 0zM283 500v-500h-283v122h149v378h134zM134 -61h108l-50 -260h-148zM328 658l-219 -43l-11 47l46 12q-39 33 -39 81q0 41 29.5 71t75.5 30q39 0 78 -24l-13 -60q-6 5 -17 9.5t-25 4.5q-23 0 -37.5 -15t-14.5 -36q0 -28 24 -45l109 29z" />
    <glyph glyph-name="uni06C2.medi" unicode="&#x6c2;" horiz-adv-x="576" 
d="M0 0zM576 0h-100v-307l-56 -6q-36 -3 -64 -3q-95 0 -148 34t-75 101.5t-27 180.5h-106v122h233v-68q0 -80 6.5 -131t30 -84.5t72.5 -33.5v317h234v-122zM398 402l-219 -43l-11 47l46 12q-39 33 -39 81q0 41 29.5 71t75.5 30q39 0 78 -24l-13 -60q-6 5 -17 9.5t-25 4.5
q-23 0 -37.5 -15t-14.5 -36q0 -28 24 -45l109 29z" />
    <glyph glyph-name="uni06C2.fina" unicode="&#x6c2;" horiz-adv-x="661" 
d="M40 0zM661 122v-122h-353q-99 0 -156 21t-84.5 76.5t-27.5 161.5q0 101 26 154.5t84 75t163 21.5q56 0 134 -4t110 -9v-375h104zM188.5 173.5q14.5 -29.5 44.5 -40.5t82 -11h108v261q-50 5 -105 5t-85.5 -11t-44.5 -38.5t-14 -79.5q0 -56 14.5 -85.5zM435 658l-219 -43
l-11 47l46 12q-39 33 -39 81q0 41 29.5 71t75.5 30q39 0 78 -24l-13 -60q-6 5 -17 9.5t-25 4.5q-23 0 -37.5 -15t-14.5 -36q0 -28 24 -45l109 29z" />
    <glyph glyph-name="uni06C3.fina" unicode="&#x6c3;" horiz-adv-x="656" 
d="M40 0zM656 122v-122h-234v386l-32 2q-52 2 -69 2q-62 0 -93 -13.5t-43 -46.5t-12 -99v-231h-133v231q0 113 27.5 171.5t94.5 82t196 23.5q93 0 146 -6l52 -6v-374h100zM190 748h103v-125h-103v125zM342 748h103v-125h-103v125z" />
    <glyph glyph-name="uniFB51" unicode="&#x671;" horiz-adv-x="312" arabic-form="final" 
d="M26 0zM312 122v-122h-232v614h134v-492h98zM26 738h40q0 25 15.5 52.5t43 45.5t59.5 18q39 0 62 -28.5t23 -87.5v-62h-243v62zM218 738q0 34 -10 49t-32 15q-28 0 -49 -19t-21 -45h112z" />
    <glyph glyph-name="uniFB57" unicode="&#x67e;" horiz-adv-x="921" arabic-form="final" 
d="M54 0zM921 122v-122h-581q-87 0 -147.5 13t-99.5 55t-39 125q0 43 9.5 98.5t21.5 101.5l108 -6l-7 -63q-10 -73 -10 -100q0 -102 148 -102h314v378h134v-378h149zM300 -80h103v-120h-103v120zM452 -80h103v-120h-103v120zM380 -226h96v-112h-96v112z" />
    <glyph glyph-name="uniFB58" unicode="&#x67e;" horiz-adv-x="353" arabic-form="initial" 
d="M0 0zM283 500v-500h-283v122h149v378h134zM90 -80h103v-120h-103v120zM242 -80h103v-120h-103v120zM170 -226h96v-112h-96v112z" />
    <glyph glyph-name="uniFB59" unicode="&#x67e;" horiz-adv-x="433" arabic-form="medial" 
d="M0 0zM433 122v-122h-433v122h149v378h134v-378h150zM87 -80h103v-120h-103v120zM239 -80h103v-120h-103v120zM167 -226h96v-112h-96v112z" />
    <glyph glyph-name="uniFB67" unicode="&#x679;" horiz-adv-x="921" arabic-form="final" 
d="M54 0zM921 122v-122h-581q-87 0 -147.5 13t-99.5 55t-39 125q0 43 9.5 98.5t21.5 101.5l108 -6l-7 -63q-10 -73 -10 -100q0 -102 148 -102h314v378h134v-378h149zM522 664q25 -24 25 -68v-96h-231v58h9v211h50v-144q17 30 40.5 46.5t49.5 16.5q32 0 57 -24zM398.5 611.5
q-23.5 -23.5 -23.5 -48.5v-5h125v38q0 17 -13 28t-34 11q-31 0 -54.5 -23.5z" />
    <glyph glyph-name="uniFB68" unicode="&#x679;" horiz-adv-x="353" arabic-form="initial" 
d="M0 0zM283 500v-500h-283v122h149v378h134zM312 757q25 -24 25 -68v-96h-231v58h9v211h50v-144q17 30 40.5 46.5t49.5 16.5q32 0 57 -24zM188.5 704.5q-23.5 -23.5 -23.5 -48.5v-5h125v38q0 17 -13 28t-34 11q-31 0 -54.5 -23.5z" />
    <glyph glyph-name="uniFB69" unicode="&#x679;" horiz-adv-x="433" arabic-form="medial" 
d="M0 0zM433 122v-122h-433v122h149v378h134v-378h150zM309 757q25 -24 25 -68v-96h-231v58h9v211h50v-144q17 30 40.5 46.5t49.5 16.5q32 0 57 -24zM185.5 704.5q-23.5 -23.5 -23.5 -48.5v-5h125v38q0 17 -13 28t-34 11q-31 0 -54.5 -23.5z" />
    <glyph glyph-name="uniFB6B" unicode="&#x6a4;" horiz-adv-x="1053" arabic-form="final" 
d="M40 0zM1053 122v-122h-727q-87 0 -147.5 13t-99.5 55.5t-39 125.5q0 43 9.5 97.5t21.5 101.5l108 -6q-7 -56 -8 -70q-9 -74 -9 -93q0 -102 148 -102h197q-17 61 -17 138q0 91 28.5 143t86.5 74t153 22q84 0 147 -7l52 -6v-364h96zM631 173.5q5 -23.5 14 -51.5h178v255
q-43 3 -69 3q-54 0 -80.5 -12t-37 -42t-10.5 -91q0 -38 5 -61.5zM727 851h96v-112h-96v112zM647 713h103v-120h-103v120zM799 713h103v-120h-103v120z" />
    <glyph glyph-name="uniFB6C" unicode="&#x6a4;" horiz-adv-x="607" arabic-form="initial" 
d="M0 0zM557 486v-486h-557v122h107q-17 61 -17 138q0 91 28.5 143t86.5 74t153 22q84 0 147 -7zM231 173.5q5 -23.5 14 -51.5h178v255q-44 3 -69 3q-54 0 -80.5 -12t-37 -42t-10.5 -91q0 -38 5 -61.5zM286 851h96v-112h-96v112zM206 713h103v-120h-103v120zM358 713h103
v-120h-103v120z" />
    <glyph glyph-name="uniFB6D" unicode="&#x6a4;" horiz-adv-x="654" arabic-form="medial" 
d="M0 0zM654 122v-122h-654v122h107q-17 61 -17 138q0 91 28.5 143t86.5 74t153 22q84 0 147 -7l52 -6v-364h97zM231 173.5q5 -23.5 14 -51.5h178v255q-44 3 -69 3q-54 0 -80.5 -12t-37 -42t-10.5 -91q0 -38 5 -61.5zM306 851h96v-112h-96v112zM226 713h103v-120h-103v120z
M378 713h103v-120h-103v120z" />
    <glyph glyph-name="uniFB7B" unicode="&#x686;" horiz-adv-x="631" arabic-form="final" 
d="M90 -251.5q-60 64.5 -60 176.5q0 103 53.5 157.5t158.5 54.5q37 0 77.5 -7t69.5 -15v195q0 43 -18.5 64.5t-63.5 21.5q-92 -3 -160 -6l-51 -2l-4 89q52 14 126 23.5t125 9.5q94 0 136.5 -39.5t43.5 -125.5v-223h108v-122h-242q-26 8 -59.5 14t-58.5 6q-50 0 -78.5 -26.5
t-28.5 -77.5t30.5 -81.5t92.5 -30.5l18 -118q-32 -2 -45 -2q-110 0 -170 64.5zM325 -68h103v-120h-103v120zM477 -68h103v-120h-103v120zM405 -214h96v-112h-96v112z" />
    <glyph glyph-name="uniFB7C" unicode="&#x686;" horiz-adv-x="571" arabic-form="initial" 
d="M0 0zM467.5 470.5q42.5 -39.5 43.5 -125.5v-345h-511v122h377v188q0 43 -18.5 64.5t-63.5 21.5q-92 -3 -160 -6l-51 -2l-4 89q52 14 126 23.5t125 9.5q94 0 136.5 -39.5zM175 -80h103v-120h-103v120zM327 -80h103v-120h-103v120zM255 -226h96v-112h-96v112z" />
    <glyph glyph-name="uniFB7D" unicode="&#x686;" horiz-adv-x="614" arabic-form="medial" 
d="M0 0zM614 122v-122h-614v122h377v188q0 43 -18.5 64.5t-63.5 21.5q-92 -3 -160 -6l-51 -2l-4 89q52 14 126 23.5t125 9.5q94 0 136.5 -39.5t43.5 -125.5v-223h103zM181 -80h103v-120h-103v120zM333 -80h103v-120h-103v120zM261 -226h96v-112h-96v112z" />
    <glyph glyph-name="uniFB89" unicode="&#x688;" horiz-adv-x="599" arabic-form="final" 
d="M40 0zM599 122v-122h-559v122h321v36q0 130 -49 185.5t-117 55.5h-101l-10 105q31 7 70.5 13t72.5 6q80 0 140.5 -39.5t94 -118.5t33.5 -194v-49h104zM264 784q25 -24 25 -68v-96h-231v58h9v211h50v-144q17 30 40.5 46.5t49.5 16.5q32 0 57 -24zM140.5 731.5
q-23.5 -23.5 -23.5 -48.5v-5h125v38q0 17 -13 28t-34 11q-31 0 -54.5 -23.5z" />
    <glyph glyph-name="uniFB8B" unicode="&#x698;" horiz-adv-x="445" arabic-form="final" 
d="M40 0zM445 0h-165q-1 -118 -42.5 -183t-124.5 -65q-13 0 -73 4v120l34 -2q36 0 54 28.5t18 80.5v517h134v-378h165v-122zM165 851h96v-112h-96v112zM85 713h103v-120h-103v120zM237 713h103v-120h-103v120z" />
    <glyph glyph-name="uniFB8D" unicode="&#x691;" horiz-adv-x="445" arabic-form="final" 
d="M40 0zM445 0h-165q-1 -118 -42.5 -183t-124.5 -65q-13 0 -73 4v120l34 -2q36 0 54 28.5t18 80.5v517h134v-378h165v-122zM307 757q25 -24 25 -68v-96h-231v58h9v211h50v-144q17 30 40.5 46.5t49.5 16.5q32 0 57 -24zM183.5 704.5q-23.5 -23.5 -23.5 -48.5v-5h125v38
q0 17 -13 28t-34 11q-31 0 -54.5 -23.5z" />
    <glyph glyph-name="uniFB8F" unicode="&#x6a9;" horiz-adv-x="950" arabic-form="final" 
d="M950 122v-122h-624q-87 0 -147.5 13t-99.5 55t-39 125q0 70 24 170l112 -6l-5 -41q-9 -72 -9 -92q0 -102 148 -102h401v123q0 52 -24.5 85t-58.5 33h-268l-69 93l60 117q20 40 54 85.5t64 78.5l99 -56q-52 -74 -98 -161l-18 -35h198q80 0 123 -43t57.5 -97t14.5 -101
v-122h105z" />
    <glyph glyph-name="uniFB90" unicode="&#x6a9;" horiz-adv-x="639" arabic-form="initial" 
d="M0 0zM507 442q43 -43 57.5 -97t14.5 -101v-244h-579v122h445v123q0 52 -24.5 85t-58.5 33h-268l-69 93l60 117q20 40 54 85.5t64 78.5l99 -56q-52 -74 -98 -161l-18 -35h198q80 0 123 -43z" />
    <glyph glyph-name="uniFB91" unicode="&#x6a9;" horiz-adv-x="712" arabic-form="medial" 
d="M0 0zM712 122v-122h-712v122h445v123q0 52 -24.5 85t-58.5 33h-268l-69 93l60 117q20 40 54 85.5t64 78.5l99 -56q-52 -74 -98 -161l-18 -35h198q80 0 123 -43t57.5 -97t14.5 -101v-122h133z" />
    <glyph glyph-name="uniFB93" unicode="&#x6af;" horiz-adv-x="950" arabic-form="final" 
d="M40 0zM950 122v-122h-624q-87 0 -147.5 13t-99.5 55t-39 125q0 70 24 170l112 -6l-5 -41q-9 -72 -9 -92q0 -102 148 -102h401v123q0 52 -24.5 85t-58.5 33h-268l-69 93l60 117q20 40 54 85.5t64 78.5l99 -56q-52 -74 -98 -161l-18 -35h198q80 0 123 -43t57.5 -97
t14.5 -101v-122h105zM204 579l36 71q35 67 106 157l82 -46q-28 -33 -62 -81t-55 -88l-46 -94z" />
    <glyph glyph-name="uniFB94" unicode="&#x6af;" horiz-adv-x="639" arabic-form="initial" 
d="M0 0zM507 442q43 -43 57.5 -97t14.5 -101v-244h-579v122h445v123q0 52 -24.5 85t-58.5 33h-268l-69 93l60 117q20 40 54 85.5t64 78.5l99 -56q-52 -74 -98 -161l-18 -35h198q80 0 123 -43zM-64 579l36 71q35 67 106 157l82 -46q-28 -33 -62 -81t-55 -88l-46 -94z" />
    <glyph glyph-name="uniFB95" unicode="&#x6af;" horiz-adv-x="712" arabic-form="medial" 
d="M0 0zM712 122v-122h-712v122h445v123q0 52 -24.5 85t-58.5 33h-268l-69 93l60 117q20 40 54 85.5t64 78.5l99 -56q-52 -74 -98 -161l-18 -35h198q80 0 123 -43t57.5 -97t14.5 -101v-122h133zM-64 579l36 71q35 67 106 157l82 -46q-28 -33 -62 -81t-55 -88l-46 -94z" />
    <glyph glyph-name="uniFB9F" unicode="&#x6ba;" horiz-adv-x="716" arabic-form="final" 
d="M716 0h-103v-14q0 -64 -34.5 -117.5t-98 -85t-147.5 -31.5q-85 0 -151.5 31.5t-104 85.5t-37.5 119q0 64 36 287l126 -7q-12 -76 -22 -158t-10 -108q0 -35 20 -64.5t56.5 -46.5t81.5 -17t79.5 17t53 46t18.5 63v500h134v-378h103v-122z" />
    <glyph glyph-name="uniFBA7" unicode="&#x6c1;" horiz-adv-x="656" arabic-form="final" 
d="M656 122v-122h-234v386l-32 2q-52 2 -69 2q-62 0 -93 -13.5t-43 -46.5t-12 -99v-231h-133v231q0 113 27.5 171.5t94.5 82t196 23.5q93 0 146 -6l52 -6v-374h100z" />
    <glyph glyph-name="uniFBA8" unicode="&#x6c1;" horiz-adv-x="353" arabic-form="initial" 
d="M0 0zM283 500v-500h-283v122h149v378h134zM134 -61h108l-50 -260h-148z" />
    <glyph glyph-name="uniFBA9" unicode="&#x6c1;" horiz-adv-x="576" arabic-form="medial" 
d="M576 0h-100v-307l-56 -6q-36 -3 -64 -3q-95 0 -148 34t-75 101.5t-27 180.5h-106v122h233v-68q0 -80 6.5 -131t30 -84.5t72.5 -33.5v317h234v-122z" />
    <glyph glyph-name="uniFBAB" unicode="&#x6be;" horiz-adv-x="818" arabic-form="final" 
d="M818 122v-122h-778v122h47v19q0 53 26.5 101t74.5 77.5t107 29.5t106 -29.5t73.5 -77.5t26.5 -100v-20h94v95q0 136 -73.5 188t-166.5 52q-41 0 -93.5 -7.5t-138.5 -21.5l-11 107q76 19 144 31t129 12q109 0 186.5 -45.5t117.5 -127t40 -188.5v-95h89zM242.5 202.5
q-20.5 -24.5 -20.5 -59.5v-21h145v22q0 35 -21 59t-52 24t-51.5 -24.5z" />
    <glyph glyph-name="uniFBAC" unicode="&#x6be;" horiz-adv-x="797" arabic-form="initial" 
d="M0 0zM589.5 532.5q77.5 -45.5 117.5 -127t40 -188.5v-217h-747v122h105v19q0 53 26.5 101t74.5 77.5t107 29.5t106 -29.5t73.5 -77.5t26.5 -100v-20h94v95q0 136 -73.5 188t-166.5 52q-41 0 -93.5 -7.5t-138.5 -21.5l-11 107q76 19 144 31t129 12q109 0 186.5 -45.5z
M260.5 202.5q-20.5 -24.5 -20.5 -59.5v-21h145v22q0 35 -21 59t-52 24t-51.5 -24.5z" />
    <glyph glyph-name="uniFBAD" unicode="&#x6be;" horiz-adv-x="836" arabic-form="medial" 
d="M0 0zM836 122v-122h-836v122h105v19q0 53 26.5 101t74.5 77.5t107 29.5t106 -29.5t73.5 -77.5t26.5 -100v-20h94v95q0 136 -73.5 188t-166.5 52q-41 0 -93.5 -7.5t-138.5 -21.5l-11 107q76 19 144 31t129 12q109 0 186.5 -45.5t117.5 -127t40 -188.5v-95h89zM260.5 202.5
q-20.5 -24.5 -20.5 -59.5v-21h145v22q0 35 -21 59t-52 24t-51.5 -24.5z" />
    <glyph glyph-name="uniFBAF" unicode="&#x6d2;" horiz-adv-x="710" arabic-form="final" 
d="M172 0q-2 -14 -2 -25q0 -43 17 -64.5t45 -27.5t73 -6h317v-122h-296q-97 0 -156 12.5t-95.5 58t-36.5 138.5q0 46 9 89t20 69h643v-122h-538z" />
    <glyph glyph-name="uniFBB1" unicode="&#x6d3;" horiz-adv-x="710" arabic-form="final" 
d="M38 0zM172 0q-2 -14 -2 -25q0 -43 17 -64.5t45 -27.5t73 -6h317v-122h-296q-97 0 -156 12.5t-95.5 58t-36.5 138.5q0 46 9 89t20 69h643v-122h-538zM320 275l-219 -43l-11 47l46 12q-39 33 -39 81q0 41 29.5 71t75.5 30q39 0 78 -24l-13 -60q-6 5 -17 9.5t-25 4.5
q-23 0 -37.5 -15t-14.5 -36q0 -28 24 -45l109 29z" />
    <glyph glyph-name="uniFBE8" unicode="&#x649;" horiz-adv-x="353" arabic-form="initial" 
d="M0 0zM283 500v-500h-283v122h149v378h134z" />
    <glyph glyph-name="uniFBE9" unicode="&#x649;" horiz-adv-x="433" arabic-form="medial" 
d="M0 0zM433 122v-122h-433v122h149v378h134v-378h150z" />
    <glyph glyph-name="uniFBFD" unicode="&#x6cc;" horiz-adv-x="962" arabic-form="final" 
d="M40 0zM962 0h-114q-3 -128 -65 -188t-170 -60h-279q-69 0 -137 26t-112.5 80t-44.5 132q0 35 8.5 93t18.5 107l125 -20q-7 -42 -12.5 -90.5t-5.5 -69.5q0 -38 19.5 -69t54.5 -49t81 -18h276q55 0 80 28t26 98h-3q-46 0 -82 9.5t-74 36.5l58 104q26 -20 46 -24t62 -4h244
v-122z" />
    <glyph glyph-name="uniFBFE" unicode="&#x6cc;" horiz-adv-x="353" arabic-form="initial" 
d="M0 0zM283 500v-500h-283v122h149v378h134zM90 -80h103v-125h-103v125zM242 -80h103v-125h-103v125z" />
    <glyph glyph-name="uniFBFF" unicode="&#x6cc;" horiz-adv-x="433" arabic-form="medial" 
d="M0 0zM433 122v-122h-433v122h149v378h134v-378h150zM87 -80h103v-125h-103v125zM239 -80h103v-125h-103v125z" />
    <glyph glyph-name="uniFC64" unicode="&#xfc64;" horiz-adv-x="761" arabic-form="final" 
d="M40 0zM761 122v-122h-251v374q-154 -8 -230 -19v-349q0 -120 -41.5 -187t-125.5 -67q-13 0 -73 4v120l34 -2q36 0 54 28.5t18 80.5v469q64 17 187.5 32.5t310.5 15.5v-378h117zM697 658l-219 -43l-11 47l46 12q-39 33 -39 81q0 41 29.5 71t75.5 30q39 0 78 -24l-13 -60
q-6 5 -17 9.5t-25 4.5q-23 0 -37.5 -15t-14.5 -36q0 -28 24 -45l109 29z" />
    <glyph glyph-name="uniFC65" unicode="&#xfc65;" horiz-adv-x="761" arabic-form="final" 
d="M40 0zM761 122v-122h-251v374q-154 -8 -230 -19v-349q0 -120 -41.5 -187t-125.5 -67q-13 0 -73 4v120l34 -2q36 0 54 28.5t18 80.5v469q64 17 187.5 32.5t310.5 15.5v-378h117zM697 658l-219 -43l-11 47l46 12q-39 33 -39 81q0 41 29.5 71t75.5 30q39 0 78 -24l-13 -60
q-6 5 -17 9.5t-25 4.5q-23 0 -37.5 -15t-14.5 -36q0 -28 24 -45l109 29zM151 723h123v-130h-123v130z" />
    <glyph glyph-name="uniFC67" unicode="&#xfc67;" horiz-adv-x="1074" arabic-form="final" 
d="M40 0zM395 500h-123v130h123v-130zM1074 122v-122h-251v375q-66 -3 -106.5 -7t-103.5 -13v-369q0 -64 -34.5 -117.5t-98 -85t-147.5 -31.5q-85 0 -151.5 31.5t-104 85.5t-37.5 119q0 64 36 287l126 -7q-12 -76 -22 -158t-10 -108q0 -35 20 -64.5t56.5 -46.5t81.5 -17
t79.5 17t53 46t18.5 63v452q178 48 478 48v-378h117zM1009 658l-219 -43l-11 47l46 12q-39 33 -39 81q0 41 29.5 71t75.5 30q39 0 78 -24l-13 -60q-6 5 -17 9.5t-25 4.5q-23 0 -37.5 -15t-14.5 -36q0 -28 24 -45l109 29z" />
    <glyph glyph-name="uniFC68" unicode="&#xfc68;" horiz-adv-x="1214" arabic-form="final" 
d="M40 0zM1214 122v-122h-251v380h-339q-109 0 -109 -72q0 -25 18 -41t45 -26.5t91 -30.5q69 -22 107 -46t55 -59.5t17 -91.5q0 -135 -62 -198t-173 -63h-279q-69 0 -137 26t-112.5 80t-44.5 132q0 35 8.5 93t18.5 107l125 -20q-7 -42 -12.5 -90.5t-5.5 -69.5
q0 -38 19.5 -69t54.5 -49t81 -18h276q55 0 80.5 28.5t25.5 101.5q0 36 -28 53t-94 36q-79 22 -124.5 49t-66 64t-20.5 92q0 100 61 151t171 51h487v-378h117zM1150 658l-219 -43l-11 47l46 12q-39 33 -39 81q0 41 29.5 71t75.5 30q39 0 78 -24l-13 -60q-6 5 -17 9.5t-25 4.5
q-23 0 -37.5 -15t-14.5 -36q0 -28 24 -45l109 29z" />
    <glyph glyph-name="uniFC69" unicode="&#xfc69;" horiz-adv-x="1214" arabic-form="final" 
d="M40 0zM1214 122v-122h-251v380h-339q-109 0 -109 -72q0 -25 18 -41t45 -26.5t91 -30.5q69 -22 107 -46t55 -59.5t17 -91.5q0 -135 -62 -198t-173 -63h-279q-69 0 -137 26t-112.5 80t-44.5 132q0 35 8.5 93t18.5 107l125 -20q-7 -42 -12.5 -90.5t-5.5 -69.5
q0 -38 19.5 -69t54.5 -49t81 -18h276q55 0 80.5 28.5t25.5 101.5q0 36 -28 53t-94 36q-79 22 -124.5 49t-66 64t-20.5 92q0 100 61 151t171 51h487v-378h117zM1150 658l-219 -43l-11 47l46 12q-39 33 -39 81q0 41 29.5 71t75.5 30q39 0 78 -24l-13 -60q-6 5 -17 9.5t-25 4.5
q-23 0 -37.5 -15t-14.5 -36q0 -28 24 -45l109 29zM326 -320h103v-125h-103v125zM478 -320h103v-125h-103v125z" />
    <glyph glyph-name="uniFC6A" unicode="&#xfc6a;" horiz-adv-x="761" arabic-form="final" 
d="M40 0zM761 122v-122h-251v374q-154 -8 -230 -19v-349q0 -120 -41.5 -187t-125.5 -67q-13 0 -73 4v120l34 -2q36 0 54 28.5t18 80.5v469q64 17 187.5 32.5t310.5 15.5v-378h117zM525 -80h123v-130h-123v130z" />
    <glyph glyph-name="uniFC6B" unicode="&#xfc6b;" horiz-adv-x="761" arabic-form="final" 
d="M40 0zM761 122v-122h-251v374q-154 -8 -230 -19v-349q0 -120 -41.5 -187t-125.5 -67q-13 0 -73 4v120l34 -2q36 0 54 28.5t18 80.5v469q64 17 187.5 32.5t310.5 15.5v-378h117zM525 -80h123v-130h-123v130zM151 723h123v-130h-123v130z" />
    <glyph glyph-name="uniFC6D" unicode="&#xfc6d;" horiz-adv-x="1074" arabic-form="final" 
d="M40 0zM395 500h-123v130h123v-130zM1074 122v-122h-251v375q-66 -3 -106.5 -7t-103.5 -13v-369q0 -64 -34.5 -117.5t-98 -85t-147.5 -31.5q-85 0 -151.5 31.5t-104 85.5t-37.5 119q0 64 36 287l126 -7q-12 -76 -22 -158t-10 -108q0 -35 20 -64.5t56.5 -46.5t81.5 -17
t79.5 17t53 46t18.5 63v452q178 48 478 48v-378h117zM837 -80h123v-130h-123v130z" />
    <glyph glyph-name="uniFC6E" unicode="&#xfc6e;" horiz-adv-x="1214" arabic-form="final" 
d="M40 0zM1214 122v-122h-251v380h-339q-109 0 -109 -72q0 -25 18 -41t45 -26.5t91 -30.5q69 -22 107 -46t55 -59.5t17 -91.5q0 -135 -62 -198t-173 -63h-279q-69 0 -137 26t-112.5 80t-44.5 132q0 35 8.5 93t18.5 107l125 -20q-7 -42 -12.5 -90.5t-5.5 -69.5
q0 -38 19.5 -69t54.5 -49t81 -18h276q55 0 80.5 28.5t25.5 101.5q0 36 -28 53t-94 36q-79 22 -124.5 49t-66 64t-20.5 92q0 100 61 151t171 51h487v-378h117zM978 -80h123v-130h-123v130z" />
    <glyph glyph-name="uniFC6F" unicode="&#xfc6f;" horiz-adv-x="1214" arabic-form="final" 
d="M40 0zM1214 122v-122h-251v380h-339q-109 0 -109 -72q0 -25 18 -41t45 -26.5t91 -30.5q69 -22 107 -46t55 -59.5t17 -91.5q0 -135 -62 -198t-173 -63h-279q-69 0 -137 26t-112.5 80t-44.5 132q0 35 8.5 93t18.5 107l125 -20q-7 -42 -12.5 -90.5t-5.5 -69.5
q0 -38 19.5 -69t54.5 -49t81 -18h276q55 0 80.5 28.5t25.5 101.5q0 36 -28 53t-94 36q-79 22 -124.5 49t-66 64t-20.5 92q0 100 61 151t171 51h487v-378h117zM978 -80h123v-130h-123v130zM326 -320h103v-125h-103v125zM478 -320h103v-125h-103v125z" />
    <glyph glyph-name="uniFC70" unicode="&#xfc70;" horiz-adv-x="761" arabic-form="final" 
d="M40 0zM761 122v-122h-251v374q-154 -8 -230 -19v-349q0 -120 -41.5 -187t-125.5 -67q-13 0 -73 4v120l34 -2q36 0 54 28.5t18 80.5v469q64 17 187.5 32.5t310.5 15.5v-378h117zM459 718h103v-125h-103v125zM611 718h103v-125h-103v125z" />
    <glyph glyph-name="uniFC71" unicode="&#xfc71;" horiz-adv-x="761" arabic-form="final" 
d="M40 0zM761 122v-122h-251v374q-154 -8 -230 -19v-349q0 -120 -41.5 -187t-125.5 -67q-13 0 -73 4v120l34 -2q36 0 54 28.5t18 80.5v469q64 17 187.5 32.5t310.5 15.5v-378h117zM459 718h103v-125h-103v125zM611 718h103v-125h-103v125zM151 723h123v-130h-123v130z" />
    <glyph glyph-name="uniFC73" unicode="&#xfc73;" horiz-adv-x="1074" arabic-form="final" 
d="M40 0zM395 500h-123v130h123v-130zM1074 122v-122h-251v375q-66 -3 -106.5 -7t-103.5 -13v-369q0 -64 -34.5 -117.5t-98 -85t-147.5 -31.5q-85 0 -151.5 31.5t-104 85.5t-37.5 119q0 64 36 287l126 -7q-12 -76 -22 -158t-10 -108q0 -35 20 -64.5t56.5 -46.5t81.5 -17
t79.5 17t53 46t18.5 63v452q178 48 478 48v-378h117zM771 718h103v-125h-103v125zM923 718h103v-125h-103v125z" />
    <glyph glyph-name="uniFC74" unicode="&#xfc74;" horiz-adv-x="1214" arabic-form="final" 
d="M40 0zM1214 122v-122h-251v380h-339q-109 0 -109 -72q0 -25 18 -41t45 -26.5t91 -30.5q69 -22 107 -46t55 -59.5t17 -91.5q0 -135 -62 -198t-173 -63h-279q-69 0 -137 26t-112.5 80t-44.5 132q0 35 8.5 93t18.5 107l125 -20q-7 -42 -12.5 -90.5t-5.5 -69.5
q0 -38 19.5 -69t54.5 -49t81 -18h276q55 0 80.5 28.5t25.5 101.5q0 36 -28 53t-94 36q-79 22 -124.5 49t-66 64t-20.5 92q0 100 61 151t171 51h487v-378h117zM912 718h103v-125h-103v125zM1064 718h103v-125h-103v125z" />
    <glyph glyph-name="uniFC75" unicode="&#xfc75;" horiz-adv-x="1214" arabic-form="final" 
d="M40 0zM1214 122v-122h-251v380h-339q-109 0 -109 -72q0 -25 18 -41t45 -26.5t91 -30.5q69 -22 107 -46t55 -59.5t17 -91.5q0 -135 -62 -198t-173 -63h-279q-69 0 -137 26t-112.5 80t-44.5 132q0 35 8.5 93t18.5 107l125 -20q-7 -42 -12.5 -90.5t-5.5 -69.5
q0 -38 19.5 -69t54.5 -49t81 -18h276q55 0 80.5 28.5t25.5 101.5q0 36 -28 53t-94 36q-79 22 -124.5 49t-66 64t-20.5 92q0 100 61 151t171 51h487v-378h117zM912 718h103v-125h-103v125zM1064 718h103v-125h-103v125zM326 -320h103v-125h-103v125zM478 -320h103v-125h-103
v125z" />
    <glyph glyph-name="uniFC76" unicode="&#xfc76;" horiz-adv-x="761" arabic-form="final" 
d="M40 0zM761 122v-122h-251v374q-154 -8 -230 -19v-349q0 -120 -41.5 -187t-125.5 -67q-13 0 -73 4v120l34 -2q36 0 54 28.5t18 80.5v469q64 17 187.5 32.5t310.5 15.5v-378h117zM539 851h96v-112h-96v112zM459 713h103v-120h-103v120zM611 713h103v-120h-103v120z" />
    <glyph glyph-name="uniFC77" unicode="&#xfc77;" horiz-adv-x="761" arabic-form="final" 
d="M40 0zM761 122v-122h-251v374q-154 -8 -230 -19v-349q0 -120 -41.5 -187t-125.5 -67q-13 0 -73 4v120l34 -2q36 0 54 28.5t18 80.5v469q64 17 187.5 32.5t310.5 15.5v-378h117zM539 851h96v-112h-96v112zM459 713h103v-120h-103v120zM611 713h103v-120h-103v120zM151 723
h123v-130h-123v130z" />
    <glyph glyph-name="uniFC79" unicode="&#xfc79;" horiz-adv-x="1074" arabic-form="final" 
d="M40 0zM395 500h-123v130h123v-130zM1074 122v-122h-251v375q-66 -3 -106.5 -7t-103.5 -13v-369q0 -64 -34.5 -117.5t-98 -85t-147.5 -31.5q-85 0 -151.5 31.5t-104 85.5t-37.5 119q0 64 36 287l126 -7q-12 -76 -22 -158t-10 -108q0 -35 20 -64.5t56.5 -46.5t81.5 -17
t79.5 17t53 46t18.5 63v452q178 48 478 48v-378h117zM851 851h96v-112h-96v112zM771 713h103v-120h-103v120zM923 713h103v-120h-103v120z" />
    <glyph glyph-name="uniFC7A" unicode="&#xfc7a;" horiz-adv-x="1214" arabic-form="final" 
d="M40 0zM1214 122v-122h-251v380h-339q-109 0 -109 -72q0 -25 18 -41t45 -26.5t91 -30.5q69 -22 107 -46t55 -59.5t17 -91.5q0 -135 -62 -198t-173 -63h-279q-69 0 -137 26t-112.5 80t-44.5 132q0 35 8.5 93t18.5 107l125 -20q-7 -42 -12.5 -90.5t-5.5 -69.5
q0 -38 19.5 -69t54.5 -49t81 -18h276q55 0 80.5 28.5t25.5 101.5q0 36 -28 53t-94 36q-79 22 -124.5 49t-66 64t-20.5 92q0 100 61 151t171 51h487v-378h117zM992 851h96v-112h-96v112zM912 713h103v-120h-103v120zM1064 713h103v-120h-103v120z" />
    <glyph glyph-name="uniFC7B" unicode="&#xfc7b;" horiz-adv-x="1214" arabic-form="final" 
d="M40 0zM1214 122v-122h-251v380h-339q-109 0 -109 -72q0 -25 18 -41t45 -26.5t91 -30.5q69 -22 107 -46t55 -59.5t17 -91.5q0 -135 -62 -198t-173 -63h-279q-69 0 -137 26t-112.5 80t-44.5 132q0 35 8.5 93t18.5 107l125 -20q-7 -42 -12.5 -90.5t-5.5 -69.5
q0 -38 19.5 -69t54.5 -49t81 -18h276q55 0 80.5 28.5t25.5 101.5q0 36 -28 53t-94 36q-79 22 -124.5 49t-66 64t-20.5 92q0 100 61 151t171 51h487v-378h117zM992 851h96v-112h-96v112zM912 713h103v-120h-103v120zM1064 713h103v-120h-103v120zM326 -320h103v-125h-103v125
zM478 -320h103v-125h-103v125z" />
    <glyph glyph-name="uniFC8A" unicode="&#xfc8a;" horiz-adv-x="761" arabic-form="final" 
d="M40 0zM761 122v-122h-251v374q-154 -8 -230 -19v-349q0 -120 -41.5 -187t-125.5 -67q-13 0 -73 4v120l34 -2q36 0 54 28.5t18 80.5v469q64 17 187.5 32.5t310.5 15.5v-378h117zM525 723h123v-130h-123v130z" />
    <glyph glyph-name="uniFC8B" unicode="&#xfc8b;" horiz-adv-x="761" arabic-form="final" 
d="M40 0zM761 122v-122h-251v374q-154 -8 -230 -19v-349q0 -120 -41.5 -187t-125.5 -67q-13 0 -73 4v120l34 -2q36 0 54 28.5t18 80.5v469q64 17 187.5 32.5t310.5 15.5v-378h117zM525 723h123v-130h-123v130zM151 723h123v-130h-123v130z" />
    <glyph glyph-name="uniFC8D" unicode="&#xfc8d;" horiz-adv-x="1074" arabic-form="final" 
d="M40 0zM395 500h-123v130h123v-130zM1074 122v-122h-251v375q-66 -3 -106.5 -7t-103.5 -13v-369q0 -64 -34.5 -117.5t-98 -85t-147.5 -31.5q-85 0 -151.5 31.5t-104 85.5t-37.5 119q0 64 36 287l126 -7q-12 -76 -22 -158t-10 -108q0 -35 20 -64.5t56.5 -46.5t81.5 -17
t79.5 17t53 46t18.5 63v452q178 48 478 48v-378h117zM837 723h123v-130h-123v130z" />
    <glyph glyph-name="uniFC8E" unicode="&#xfc8e;" horiz-adv-x="1214" arabic-form="final" 
d="M40 0zM1214 122v-122h-251v380h-339q-109 0 -109 -72q0 -25 18 -41t45 -26.5t91 -30.5q69 -22 107 -46t55 -59.5t17 -91.5q0 -135 -62 -198t-173 -63h-279q-69 0 -137 26t-112.5 80t-44.5 132q0 35 8.5 93t18.5 107l125 -20q-7 -42 -12.5 -90.5t-5.5 -69.5
q0 -38 19.5 -69t54.5 -49t81 -18h276q55 0 80.5 28.5t25.5 101.5q0 36 -28 53t-94 36q-79 22 -124.5 49t-66 64t-20.5 92q0 100 61 151t171 51h487v-378h117zM978 723h123v-130h-123v130z" />
    <glyph glyph-name="uniFC8F" unicode="&#xfc8f;" horiz-adv-x="1214" arabic-form="final" 
d="M40 0zM1214 122v-122h-251v380h-339q-109 0 -109 -72q0 -25 18 -41t45 -26.5t91 -30.5q69 -22 107 -46t55 -59.5t17 -91.5q0 -135 -62 -198t-173 -63h-279q-69 0 -137 26t-112.5 80t-44.5 132q0 35 8.5 93t18.5 107l125 -20q-7 -42 -12.5 -90.5t-5.5 -69.5
q0 -38 19.5 -69t54.5 -49t81 -18h276q55 0 80.5 28.5t25.5 101.5q0 36 -28 53t-94 36q-79 22 -124.5 49t-66 64t-20.5 92q0 100 61 151t171 51h487v-378h117zM978 723h123v-130h-123v130zM326 -320h103v-125h-103v125zM478 -320h103v-125h-103v125z" />
    <glyph glyph-name="uniFC91" unicode="&#xfc91;" horiz-adv-x="761" arabic-form="final" 
d="M40 0zM761 122v-122h-251v374q-154 -8 -230 -19v-349q0 -120 -41.5 -187t-125.5 -67q-13 0 -73 4v120l34 -2q36 0 54 28.5t18 80.5v469q64 17 187.5 32.5t310.5 15.5v-378h117zM459 -80h103v-125h-103v125zM611 -80h103v-125h-103v125z" />
    <glyph glyph-name="uniFC92" unicode="&#xfc92;" horiz-adv-x="761" arabic-form="final" 
d="M40 0zM761 122v-122h-251v374q-154 -8 -230 -19v-349q0 -120 -41.5 -187t-125.5 -67q-13 0 -73 4v120l34 -2q36 0 54 28.5t18 80.5v469q64 17 187.5 32.5t310.5 15.5v-378h117zM459 -80h103v-125h-103v125zM611 -80h103v-125h-103v125zM151 723h123v-130h-123v130z" />
    <glyph glyph-name="uniFC94" unicode="&#xfc94;" horiz-adv-x="1074" arabic-form="final" 
d="M40 0zM395 500h-123v130h123v-130zM1074 122v-122h-251v375q-66 -3 -106.5 -7t-103.5 -13v-369q0 -64 -34.5 -117.5t-98 -85t-147.5 -31.5q-85 0 -151.5 31.5t-104 85.5t-37.5 119q0 64 36 287l126 -7q-12 -76 -22 -158t-10 -108q0 -35 20 -64.5t56.5 -46.5t81.5 -17
t79.5 17t53 46t18.5 63v452q178 48 478 48v-378h117zM771 -80h103v-125h-103v125zM923 -80h103v-125h-103v125z" />
    <glyph glyph-name="uniFCFB" unicode="&#xfcfb;" horiz-adv-x="1668" arabic-form="isolated" 
d="M1599.5 371q8.5 -66 8.5 -93v-278h-206q-33 0 -63.5 11t-49.5 26q-40 -37 -100 -37h-226v380h-339q-109 0 -109 -72q0 -25 18 -41t45 -26.5t91 -30.5q69 -22 107 -46t55 -59.5t17 -91.5q0 -135 -62 -198t-173 -63h-279q-69 0 -137 26t-112.5 80t-44.5 132q0 35 8.5 93
t18.5 107l125 -20q-7 -42 -12.5 -90.5t-5.5 -69.5q0 -38 19.5 -69t54.5 -49t81 -18h276q55 0 80.5 28.5t25.5 101.5q0 36 -28 53t-94 36q-79 22 -124.5 49t-66 64t-20.5 92q0 100 61 151t171 51h487v-378h46q38 0 58.5 30.5t20.5 78.5v219h134v-219q0 -51 -10 -91
q9 -7 23.5 -12.5t29.5 -5.5h75v137q0 64 -2 108.5t-9 128.5l117 5q11 -64 19.5 -130z" />
    <glyph glyph-name="uniFCFC" unicode="&#xfcfc;" horiz-adv-x="1668" arabic-form="isolated" 
d="M40 0zM1599.5 371q8.5 -66 8.5 -93v-278h-206q-33 0 -63.5 11t-49.5 26q-40 -37 -100 -37h-226v380h-339q-109 0 -109 -72q0 -25 18 -41t45 -26.5t91 -30.5q69 -22 107 -46t55 -59.5t17 -91.5q0 -135 -62 -198t-173 -63h-279q-69 0 -137 26t-112.5 80t-44.5 132
q0 35 8.5 93t18.5 107l125 -20q-7 -42 -12.5 -90.5t-5.5 -69.5q0 -38 19.5 -69t54.5 -49t81 -18h276q55 0 80.5 28.5t25.5 101.5q0 36 -28 53t-94 36q-79 22 -124.5 49t-66 64t-20.5 92q0 100 61 151t171 51h487v-378h46q38 0 58.5 30.5t20.5 78.5v219h134v-219
q0 -51 -10 -91q9 -7 23.5 -12.5t29.5 -5.5h75v137q0 64 -2 108.5t-9 128.5l117 5q11 -64 19.5 -130zM326 -320h103v-125h-103v125zM478 -320h103v-125h-103v125z" />
    <glyph glyph-name="uniFCFD" unicode="&#xfcfd;" horiz-adv-x="1668" arabic-form="isolated" 
d="M40 0zM1599.5 371q8.5 -66 8.5 -93v-278h-206q-33 0 -63.5 11t-49.5 26q-40 -37 -100 -37h-226v380h-339q-109 0 -109 -72q0 -25 18 -41t45 -26.5t91 -30.5q69 -22 107 -46t55 -59.5t17 -91.5q0 -135 -62 -198t-173 -63h-279q-69 0 -137 26t-112.5 80t-44.5 132
q0 35 8.5 93t18.5 107l125 -20q-7 -42 -12.5 -90.5t-5.5 -69.5q0 -38 19.5 -69t54.5 -49t81 -18h276q55 0 80.5 28.5t25.5 101.5q0 36 -28 53t-94 36q-79 22 -124.5 49t-66 64t-20.5 92q0 100 61 151t171 51h487v-378h46q38 0 58.5 30.5t20.5 78.5v219h134v-219
q0 -51 -10 -91q9 -7 23.5 -12.5t29.5 -5.5h75v137q0 64 -2 108.5t-9 128.5l117 5q11 -64 19.5 -130zM1243 851h96v-112h-96v112zM1163 713h103v-120h-103v120zM1315 713h103v-120h-103v120z" />
    <glyph glyph-name="uniFCFE" unicode="&#xfcfe;" horiz-adv-x="1668" arabic-form="isolated" 
d="M40 0zM1599.5 371q8.5 -66 8.5 -93v-278h-206q-33 0 -63.5 11t-49.5 26q-40 -37 -100 -37h-226v380h-339q-109 0 -109 -72q0 -25 18 -41t45 -26.5t91 -30.5q69 -22 107 -46t55 -59.5t17 -91.5q0 -135 -62 -198t-173 -63h-279q-69 0 -137 26t-112.5 80t-44.5 132
q0 35 8.5 93t18.5 107l125 -20q-7 -42 -12.5 -90.5t-5.5 -69.5q0 -38 19.5 -69t54.5 -49t81 -18h276q55 0 80.5 28.5t25.5 101.5q0 36 -28 53t-94 36q-79 22 -124.5 49t-66 64t-20.5 92q0 100 61 151t171 51h487v-378h46q38 0 58.5 30.5t20.5 78.5v219h134v-219
q0 -51 -10 -91q9 -7 23.5 -12.5t29.5 -5.5h75v137q0 64 -2 108.5t-9 128.5l117 5q11 -64 19.5 -130zM1243 851h96v-112h-96v112zM1163 713h103v-120h-103v120zM1315 713h103v-120h-103v120zM326 -320h103v-125h-103v125zM478 -320h103v-125h-103v125z" />
    <glyph glyph-name="uniFD05" unicode="&#xfd05;" horiz-adv-x="1668" arabic-form="isolated" 
d="M1555.5 432.5q52.5 -77.5 52.5 -181.5v-251h-645v380h-339q-109 0 -109 -72q0 -25 18 -41t45 -26.5t91 -30.5q69 -22 107 -46t55 -59.5t17 -91.5q0 -135 -62 -198t-173 -63h-279q-69 0 -137 26t-112.5 80t-44.5 132q0 35 8.5 93t18.5 107l125 -20q-7 -42 -12.5 -90.5
t-5.5 -69.5q0 -38 19.5 -69t54.5 -49t81 -18h276q55 0 80.5 28.5t25.5 101.5q0 36 -28 53t-94 36q-79 22 -124.5 49t-66 64t-20.5 92q0 100 61 151t171 51h487v-160q45 56 81.5 91t85.5 57t113 22q126 0 178.5 -77.5zM1207.5 321.5q-67.5 -66.5 -110.5 -153.5v-46h377v103
q0 68 -33.5 115.5t-94.5 47.5q-71 0 -138.5 -66.5z" />
    <glyph glyph-name="uniFD06" unicode="&#xfd06;" horiz-adv-x="1668" arabic-form="isolated" 
d="M40 0zM1555.5 432.5q52.5 -77.5 52.5 -181.5v-251h-645v380h-339q-109 0 -109 -72q0 -25 18 -41t45 -26.5t91 -30.5q69 -22 107 -46t55 -59.5t17 -91.5q0 -135 -62 -198t-173 -63h-279q-69 0 -137 26t-112.5 80t-44.5 132q0 35 8.5 93t18.5 107l125 -20
q-7 -42 -12.5 -90.5t-5.5 -69.5q0 -38 19.5 -69t54.5 -49t81 -18h276q55 0 80.5 28.5t25.5 101.5q0 36 -28 53t-94 36q-79 22 -124.5 49t-66 64t-20.5 92q0 100 61 151t171 51h487v-160q45 56 81.5 91t85.5 57t113 22q126 0 178.5 -77.5zM1207.5 321.5
q-67.5 -66.5 -110.5 -153.5v-46h377v103q0 68 -33.5 115.5t-94.5 47.5q-71 0 -138.5 -66.5zM326 -320h103v-125h-103v125zM478 -320h103v-125h-103v125z" />
    <glyph glyph-name="uniFD07" unicode="&#xfd07;" horiz-adv-x="1668" arabic-form="isolated" 
d="M40 0zM1555.5 432.5q52.5 -77.5 52.5 -181.5v-251h-645v380h-339q-109 0 -109 -72q0 -25 18 -41t45 -26.5t91 -30.5q69 -22 107 -46t55 -59.5t17 -91.5q0 -135 -62 -198t-173 -63h-279q-69 0 -137 26t-112.5 80t-44.5 132q0 35 8.5 93t18.5 107l125 -20
q-7 -42 -12.5 -90.5t-5.5 -69.5q0 -38 19.5 -69t54.5 -49t81 -18h276q55 0 80.5 28.5t25.5 101.5q0 36 -28 53t-94 36q-79 22 -124.5 49t-66 64t-20.5 92q0 100 61 151t171 51h487v-160q45 56 81.5 91t85.5 57t113 22q126 0 178.5 -77.5zM1207.5 321.5
q-67.5 -66.5 -110.5 -153.5v-46h377v103q0 68 -33.5 115.5t-94.5 47.5q-71 0 -138.5 -66.5zM1265 723h123v-130h-123v130z" />
    <glyph glyph-name="uniFD08" unicode="&#xfd08;" horiz-adv-x="1668" arabic-form="isolated" 
d="M40 0zM1555.5 432.5q52.5 -77.5 52.5 -181.5v-251h-645v380h-339q-109 0 -109 -72q0 -25 18 -41t45 -26.5t91 -30.5q69 -22 107 -46t55 -59.5t17 -91.5q0 -135 -62 -198t-173 -63h-279q-69 0 -137 26t-112.5 80t-44.5 132q0 35 8.5 93t18.5 107l125 -20
q-7 -42 -12.5 -90.5t-5.5 -69.5q0 -38 19.5 -69t54.5 -49t81 -18h276q55 0 80.5 28.5t25.5 101.5q0 36 -28 53t-94 36q-79 22 -124.5 49t-66 64t-20.5 92q0 100 61 151t171 51h487v-160q45 56 81.5 91t85.5 57t113 22q126 0 178.5 -77.5zM1207.5 321.5
q-67.5 -66.5 -110.5 -153.5v-46h377v103q0 68 -33.5 115.5t-94.5 47.5q-71 0 -138.5 -66.5zM1265 723h123v-130h-123v130zM326 -320h103v-125h-103v125zM478 -320h103v-125h-103v125z" />
    <glyph glyph-name="uniFD0D" unicode="&#xfd0d;" horiz-adv-x="1222" arabic-form="isolated" 
d="M40 0zM1153.5 370q8.5 -66 8.5 -93v-277h-206q-33 0 -63.5 11t-49.5 26q-40 -37 -100 -37h-226v375q-128 -5 -237 -20v-349q0 -120 -41.5 -187t-125.5 -67q-13 0 -73 4v120l34 -2q36 0 54 28.5t18 80.5v469q63 17 190 32.5t315 15.5v-378h46q38 0 58.5 30.5t20.5 78.5
v218h134v-218q0 -51 -10 -91q9 -7 23.5 -12.5t29.5 -5.5h75v136q0 64 -2 108.5t-9 128.5l117 5q11 -64 19.5 -130zM797 851h96v-112h-96v112zM717 713h103v-120h-103v120zM869 713h103v-120h-103v120z" />
    <glyph glyph-name="uniFD0E" unicode="&#xfd0e;" horiz-adv-x="1222" arabic-form="isolated" 
d="M1153.5 370q8.5 -66 8.5 -93v-277h-206q-33 0 -63.5 11t-49.5 26q-40 -37 -100 -37h-226v375q-128 -5 -237 -20v-349q0 -120 -41.5 -187t-125.5 -67q-13 0 -73 4v120l34 -2q36 0 54 28.5t18 80.5v469q63 17 190 32.5t315 15.5v-378h46q38 0 58.5 30.5t20.5 78.5v218h134
v-218q0 -51 -10 -91q9 -7 23.5 -12.5t29.5 -5.5h75v136q0 64 -2 108.5t-9 128.5l117 5q11 -64 19.5 -130z" />
    <glyph glyph-name="uniFD0F" unicode="&#xfd0f;" horiz-adv-x="1222" arabic-form="isolated" 
d="M1109.5 432.5q52.5 -77.5 52.5 -181.5v-251h-645v375q-128 -5 -237 -20v-349q0 -120 -41.5 -187t-125.5 -67q-13 0 -73 4v120l34 -2q36 0 54 28.5t18 80.5v469q63 17 190 32.5t315 15.5v-160q45 56 81.5 91t85.5 57t113 22q126 0 178.5 -77.5zM761.5 321.5
q-67.5 -66.5 -110.5 -153.5v-46h377v103q0 68 -33.5 115.5t-94.5 47.5q-71 0 -138.5 -66.5z" />
    <glyph glyph-name="uniFD10" unicode="&#xfd10;" horiz-adv-x="1222" arabic-form="isolated" 
d="M40 0zM1109.5 432.5q52.5 -77.5 52.5 -181.5v-251h-645v375q-128 -5 -237 -20v-349q0 -120 -41.5 -187t-125.5 -67q-13 0 -73 4v120l34 -2q36 0 54 28.5t18 80.5v469q63 17 190 32.5t315 15.5v-160q45 56 81.5 91t85.5 57t113 22q126 0 178.5 -77.5zM761.5 321.5
q-67.5 -66.5 -110.5 -153.5v-46h377v103q0 68 -33.5 115.5t-94.5 47.5q-71 0 -138.5 -66.5zM798 723h123v-130h-123v130z" />
    <glyph glyph-name="uniFD17" unicode="&#xfd17;" horiz-adv-x="1718" arabic-form="final" 
d="M1718 122v-122h-316q-33 0 -63.5 11t-49.5 26q-40 -37 -100 -37h-226v380h-339q-109 0 -109 -72q0 -25 18 -41t45 -26.5t91 -30.5q69 -22 107 -46t55 -59.5t17 -91.5q0 -135 -62 -198t-173 -63h-279q-69 0 -137 26t-112.5 80t-44.5 132q0 35 8.5 93t18.5 107l125 -20
q-7 -42 -12.5 -90.5t-5.5 -69.5q0 -38 19.5 -69t54.5 -49t81 -18h276q55 0 80.5 28.5t25.5 101.5q0 36 -28 53t-94 36q-79 22 -124.5 49t-66 64t-20.5 92q0 100 61 151t171 51h487v-378h46q38 0 58.5 30.5t20.5 78.5v219h134v-219q0 -51 -10 -91q9 -7 23.5 -12.5t29.5 -5.5
h75v137q0 64 -2 108.5t-9 128.5l117 5q11 -64 19.5 -130t8.5 -93v-156h110z" />
    <glyph glyph-name="uniFD18" unicode="&#xfd18;" horiz-adv-x="1718" arabic-form="final" 
d="M40 0zM1718 122v-122h-316q-33 0 -63.5 11t-49.5 26q-40 -37 -100 -37h-226v380h-339q-109 0 -109 -72q0 -25 18 -41t45 -26.5t91 -30.5q69 -22 107 -46t55 -59.5t17 -91.5q0 -135 -62 -198t-173 -63h-279q-69 0 -137 26t-112.5 80t-44.5 132q0 35 8.5 93t18.5 107
l125 -20q-7 -42 -12.5 -90.5t-5.5 -69.5q0 -38 19.5 -69t54.5 -49t81 -18h276q55 0 80.5 28.5t25.5 101.5q0 36 -28 53t-94 36q-79 22 -124.5 49t-66 64t-20.5 92q0 100 61 151t171 51h487v-378h46q38 0 58.5 30.5t20.5 78.5v219h134v-219q0 -51 -10 -91q9 -7 23.5 -12.5
t29.5 -5.5h75v137q0 64 -2 108.5t-9 128.5l117 5q11 -64 19.5 -130t8.5 -93v-156h110zM326 -320h103v-125h-103v125zM478 -320h103v-125h-103v125z" />
    <glyph glyph-name="uniFD19" unicode="&#xfd19;" horiz-adv-x="1718" arabic-form="final" 
d="M40 0zM1718 122v-122h-316q-33 0 -63.5 11t-49.5 26q-40 -37 -100 -37h-226v380h-339q-109 0 -109 -72q0 -25 18 -41t45 -26.5t91 -30.5q69 -22 107 -46t55 -59.5t17 -91.5q0 -135 -62 -198t-173 -63h-279q-69 0 -137 26t-112.5 80t-44.5 132q0 35 8.5 93t18.5 107
l125 -20q-7 -42 -12.5 -90.5t-5.5 -69.5q0 -38 19.5 -69t54.5 -49t81 -18h276q55 0 80.5 28.5t25.5 101.5q0 36 -28 53t-94 36q-79 22 -124.5 49t-66 64t-20.5 92q0 100 61 151t171 51h487v-378h46q38 0 58.5 30.5t20.5 78.5v219h134v-219q0 -51 -10 -91q9 -7 23.5 -12.5
t29.5 -5.5h75v137q0 64 -2 108.5t-9 128.5l117 5q11 -64 19.5 -130t8.5 -93v-156h110zM1243 851h96v-112h-96v112zM1163 713h103v-120h-103v120zM1315 713h103v-120h-103v120z" />
    <glyph glyph-name="uniFD1A" unicode="&#xfd1a;" horiz-adv-x="1718" arabic-form="final" 
d="M40 0zM1718 122v-122h-316q-33 0 -63.5 11t-49.5 26q-40 -37 -100 -37h-226v380h-339q-109 0 -109 -72q0 -25 18 -41t45 -26.5t91 -30.5q69 -22 107 -46t55 -59.5t17 -91.5q0 -135 -62 -198t-173 -63h-279q-69 0 -137 26t-112.5 80t-44.5 132q0 35 8.5 93t18.5 107
l125 -20q-7 -42 -12.5 -90.5t-5.5 -69.5q0 -38 19.5 -69t54.5 -49t81 -18h276q55 0 80.5 28.5t25.5 101.5q0 36 -28 53t-94 36q-79 22 -124.5 49t-66 64t-20.5 92q0 100 61 151t171 51h487v-378h46q38 0 58.5 30.5t20.5 78.5v219h134v-219q0 -51 -10 -91q9 -7 23.5 -12.5
t29.5 -5.5h75v137q0 64 -2 108.5t-9 128.5l117 5q11 -64 19.5 -130t8.5 -93v-156h110zM1243 851h96v-112h-96v112zM1163 713h103v-120h-103v120zM1315 713h103v-120h-103v120zM326 -320h103v-125h-103v125zM478 -320h103v-125h-103v125z" />
    <glyph glyph-name="uniFD21" unicode="&#xfd21;" horiz-adv-x="1712" arabic-form="final" 
d="M1712 122v-122h-749v380h-339q-109 0 -109 -72q0 -25 18 -41t45 -26.5t91 -30.5q69 -22 107 -46t55 -59.5t17 -91.5q0 -135 -62 -198t-173 -63h-279q-69 0 -137 26t-112.5 80t-44.5 132q0 35 8.5 93t18.5 107l125 -20q-7 -42 -12.5 -90.5t-5.5 -69.5q0 -38 19.5 -69
t54.5 -49t81 -18h276q55 0 80.5 28.5t25.5 101.5q0 36 -28 53t-94 36q-79 22 -124.5 49t-66 64t-20.5 92q0 100 61 151t171 51h487v-160q45 56 81.5 91t85.5 57t113 22q126 0 178.5 -77.5t52.5 -181.5v-129h104zM1207.5 321.5q-67.5 -66.5 -110.5 -153.5v-46h377v103
q0 68 -33.5 115.5t-94.5 47.5q-71 0 -138.5 -66.5z" />
    <glyph glyph-name="uniFD22" unicode="&#xfd22;" horiz-adv-x="1712" arabic-form="final" 
d="M40 0zM1712 122v-122h-749v380h-339q-109 0 -109 -72q0 -25 18 -41t45 -26.5t91 -30.5q69 -22 107 -46t55 -59.5t17 -91.5q0 -135 -62 -198t-173 -63h-279q-69 0 -137 26t-112.5 80t-44.5 132q0 35 8.5 93t18.5 107l125 -20q-7 -42 -12.5 -90.5t-5.5 -69.5
q0 -38 19.5 -69t54.5 -49t81 -18h276q55 0 80.5 28.5t25.5 101.5q0 36 -28 53t-94 36q-79 22 -124.5 49t-66 64t-20.5 92q0 100 61 151t171 51h487v-160q45 56 81.5 91t85.5 57t113 22q126 0 178.5 -77.5t52.5 -181.5v-129h104zM1207.5 321.5q-67.5 -66.5 -110.5 -153.5v-46
h377v103q0 68 -33.5 115.5t-94.5 47.5q-71 0 -138.5 -66.5zM326 -320h103v-125h-103v125zM478 -320h103v-125h-103v125z" />
    <glyph glyph-name="uniFD23" unicode="&#xfd23;" horiz-adv-x="1712" arabic-form="final" 
d="M40 0zM1712 122v-122h-749v380h-339q-109 0 -109 -72q0 -25 18 -41t45 -26.5t91 -30.5q69 -22 107 -46t55 -59.5t17 -91.5q0 -135 -62 -198t-173 -63h-279q-69 0 -137 26t-112.5 80t-44.5 132q0 35 8.5 93t18.5 107l125 -20q-7 -42 -12.5 -90.5t-5.5 -69.5
q0 -38 19.5 -69t54.5 -49t81 -18h276q55 0 80.5 28.5t25.5 101.5q0 36 -28 53t-94 36q-79 22 -124.5 49t-66 64t-20.5 92q0 100 61 151t171 51h487v-160q45 56 81.5 91t85.5 57t113 22q126 0 178.5 -77.5t52.5 -181.5v-129h104zM1207.5 321.5q-67.5 -66.5 -110.5 -153.5v-46
h377v103q0 68 -33.5 115.5t-94.5 47.5q-71 0 -138.5 -66.5zM1265 723h123v-130h-123v130z" />
    <glyph glyph-name="uniFD24" unicode="&#xfd24;" horiz-adv-x="1712" arabic-form="final" 
d="M40 0zM1712 122v-122h-749v380h-339q-109 0 -109 -72q0 -25 18 -41t45 -26.5t91 -30.5q69 -22 107 -46t55 -59.5t17 -91.5q0 -135 -62 -198t-173 -63h-279q-69 0 -137 26t-112.5 80t-44.5 132q0 35 8.5 93t18.5 107l125 -20q-7 -42 -12.5 -90.5t-5.5 -69.5
q0 -38 19.5 -69t54.5 -49t81 -18h276q55 0 80.5 28.5t25.5 101.5q0 36 -28 53t-94 36q-79 22 -124.5 49t-66 64t-20.5 92q0 100 61 151t171 51h487v-160q45 56 81.5 91t85.5 57t113 22q126 0 178.5 -77.5t52.5 -181.5v-129h104zM1207.5 321.5q-67.5 -66.5 -110.5 -153.5v-46
h377v103q0 68 -33.5 115.5t-94.5 47.5q-71 0 -138.5 -66.5zM1265 723h123v-130h-123v130zM326 -320h103v-125h-103v125zM478 -320h103v-125h-103v125z" />
    <glyph glyph-name="uniFD29" unicode="&#xfd29;" horiz-adv-x="1310" arabic-form="final" 
d="M40 0zM1310 122v-122h-354q-33 0 -63.5 11t-49.5 26q-40 -37 -100 -37h-226v375q-128 -5 -237 -20v-349q0 -120 -41.5 -187t-125.5 -67q-13 0 -73 4v120l34 -2q36 0 54 28.5t18 80.5v469q63 17 190 32.5t315 15.5v-378h46q38 0 58.5 30.5t20.5 78.5v218h134v-218
q0 -51 -10 -91q9 -7 23.5 -12.5t29.5 -5.5h75v136q0 64 -2 108.5t-9 128.5l117 5q11 -64 19.5 -130t8.5 -93v-155h148zM797 851h96v-112h-96v112zM717 713h103v-120h-103v120zM869 713h103v-120h-103v120z" />
    <glyph glyph-name="uniFD2A" unicode="&#xfd2a;" horiz-adv-x="1310" arabic-form="final" 
d="M1310 122v-122h-354q-33 0 -63.5 11t-49.5 26q-40 -37 -100 -37h-226v375q-128 -5 -237 -20v-349q0 -120 -41.5 -187t-125.5 -67q-13 0 -73 4v120l34 -2q36 0 54 28.5t18 80.5v469q63 17 190 32.5t315 15.5v-378h46q38 0 58.5 30.5t20.5 78.5v218h134v-218q0 -51 -10 -91
q9 -7 23.5 -12.5t29.5 -5.5h75v136q0 64 -2 108.5t-9 128.5l117 5q11 -64 19.5 -130t8.5 -93v-155h148z" />
    <glyph glyph-name="uniFD2B" unicode="&#xfd2b;" horiz-adv-x="1240" arabic-form="final" 
d="M1240 122v-122h-723v375q-128 -5 -237 -20v-349q0 -120 -41.5 -187t-125.5 -67q-13 0 -73 4v120l34 -2q36 0 54 28.5t18 80.5v469q63 17 190 32.5t315 15.5v-160q45 56 81.5 91t85.5 57t113 22q126 0 178.5 -77.5t52.5 -181.5v-129h78zM761.5 321.5
q-67.5 -66.5 -110.5 -153.5v-46h377v103q0 68 -33.5 115.5t-94.5 47.5q-71 0 -138.5 -66.5z" />
    <glyph glyph-name="uniFD2C" unicode="&#xfd2c;" horiz-adv-x="1240" arabic-form="final" 
d="M40 0zM1240 122v-122h-723v375q-128 -5 -237 -20v-349q0 -120 -41.5 -187t-125.5 -67q-13 0 -73 4v120l34 -2q36 0 54 28.5t18 80.5v469q63 17 190 32.5t315 15.5v-160q45 56 81.5 91t85.5 57t113 22q126 0 178.5 -77.5t52.5 -181.5v-129h78zM761.5 321.5
q-67.5 -66.5 -110.5 -153.5v-46h377v103q0 68 -33.5 115.5t-94.5 47.5q-71 0 -138.5 -66.5zM798 723h123v-130h-123v130z" />
    <glyph glyph-name="uniFE82" unicode="&#x622;" horiz-adv-x="312" arabic-form="final" 
d="M12 0zM312 122v-122h-232v614h134v-492h98zM184.5 682.5q-21.5 7.5 -39.5 14.5q-45 21 -55 21q-9 0 -23 -11.5t-17 -13.5l-15 -14l-23 76q18 19 39 32t42 13q20 0 73 -23q46 -20 52 -20q10 0 38 24l14 14l24 -77q-40 -43 -76 -43q-12 0 -33.5 7.5z" />
    <glyph glyph-name="uniFE84" unicode="&#x623;" horiz-adv-x="312" arabic-form="final" 
d="M28 0zM312 122v-122h-232v614h134v-492h98zM258 711l-219 -43l-11 47l46 12q-39 33 -39 81q0 41 29.5 71t75.5 30q39 0 78 -24l-13 -60q-6 5 -17 9.5t-25 4.5q-23 0 -37.5 -15t-14.5 -36q0 -28 24 -45l109 29z" />
    <glyph glyph-name="uniFE86" unicode="&#x624;" horiz-adv-x="625" arabic-form="final" 
d="M41 0zM625 0h-126q-22 -248 -208 -248q-54 0 -174 19v121q120 -18 162 -18q32 0 50 11t26.5 38t8.5 77h-116q-207 0 -207 234q0 119 26.5 181t75 83.5t127.5 21.5q58 0 123 -7.5t109 -17.5v-373h123v-122zM197 156.5q22 -34.5 88 -34.5h83v271q-38 5 -73 5
q-42 0 -67 -11.5t-39 -45t-14 -99.5q0 -51 22 -85.5zM403 658l-219 -43l-11 47l46 12q-39 33 -39 81q0 41 29.5 71t75.5 30q39 0 78 -24l-13 -60q-6 5 -17 9.5t-25 4.5q-23 0 -37.5 -15t-14.5 -36q0 -28 24 -45l109 29z" />
    <glyph glyph-name="uniFE88" unicode="&#x625;" horiz-adv-x="312" arabic-form="final" 
d="M21 0zM312 122v-122h-232v700h134v-578h98zM251 -255l-219 -43l-11 47l46 12q-39 33 -39 81q0 41 29.5 71t75.5 30q39 0 78 -24l-13 -60q-6 5 -17 9.5t-25 4.5q-23 0 -37.5 -15t-14.5 -36q0 -28 24 -45l109 29z" />
    <glyph glyph-name="uniFE8A" unicode="&#x626;" horiz-adv-x="962" arabic-form="final" 
d="M40 0zM962 0h-114q-3 -128 -65 -188t-170 -60h-279q-69 0 -137 26t-112.5 80t-44.5 132q0 35 8.5 93t18.5 107l125 -20q-7 -42 -12.5 -90.5t-5.5 -69.5q0 -38 19.5 -69t54.5 -49t81 -18h276q55 0 80 28t26 98h-3q-46 0 -82 9.5t-74 36.5l58 104q26 -20 46 -24t62 -4h244
v-122zM285 326l-219 -43l-11 47l46 12q-39 33 -39 81q0 41 29.5 71t75.5 30q39 0 78 -24l-13 -60q-6 5 -17 9.5t-25 4.5q-23 0 -37.5 -15t-14.5 -36q0 -28 24 -45l109 29z" />
    <glyph glyph-name="uniFE8B" unicode="&#x626;" horiz-adv-x="353" arabic-form="initial" 
d="M0 0zM283 500v-500h-283v122h149v378h134zM328 658l-219 -43l-11 47l46 12q-39 33 -39 81q0 41 29.5 71t75.5 30q39 0 78 -24l-13 -60q-6 5 -17 9.5t-25 4.5q-23 0 -37.5 -15t-14.5 -36q0 -28 24 -45l109 29z" />
    <glyph glyph-name="uniFE8C" unicode="&#x626;" horiz-adv-x="433" arabic-form="medial" 
d="M0 0zM433 122v-122h-433v122h149v378h134v-378h150zM325 658l-219 -43l-11 47l46 12q-39 33 -39 81q0 41 29.5 71t75.5 30q39 0 78 -24l-13 -60q-6 5 -17 9.5t-25 4.5q-23 0 -37.5 -15t-14.5 -36q0 -28 24 -45l109 29z" />
    <glyph glyph-name="uniFE8E" unicode="&#x627;" horiz-adv-x="312" arabic-form="final" 
d="M312 122v-122h-232v700h134v-578h98z" />
    <glyph glyph-name="uniFE90" unicode="&#x628;" horiz-adv-x="921" arabic-form="final" 
d="M54 0zM921 122v-122h-581q-87 0 -147.5 13t-99.5 55t-39 125q0 43 9.5 98.5t21.5 101.5l108 -6l-7 -63q-10 -73 -10 -100q0 -102 148 -102h314v378h134v-378h149zM366 -80h123v-130h-123v130z" />
    <glyph glyph-name="uniFE91" unicode="&#x628;" horiz-adv-x="353" arabic-form="initial" 
d="M0 0zM283 500v-500h-283v122h149v378h134zM156 -80h123v-130h-123v130z" />
    <glyph glyph-name="uniFE92" unicode="&#x628;" horiz-adv-x="433" arabic-form="medial" 
d="M0 0zM433 122v-122h-433v122h149v378h134v-378h150zM153 -80h123v-130h-123v130z" />
    <glyph glyph-name="uniFE94" unicode="&#x629;" horiz-adv-x="661" arabic-form="final" 
d="M40 0zM661 122v-122h-353q-99 0 -156 21t-84.5 76.5t-27.5 161.5q0 101 26 154.5t84 75t163 21.5q56 0 134 -4t110 -9v-375h104zM188.5 173.5q14.5 -29.5 44.5 -40.5t82 -11h108v261q-50 5 -105 5t-85.5 -11t-44.5 -38.5t-14 -79.5q0 -56 14.5 -85.5zM197 718h103v-125
h-103v125zM349 718h103v-125h-103v125z" />
    <glyph glyph-name="uniFE96" unicode="&#x62a;" horiz-adv-x="921" arabic-form="final" 
d="M54 0zM921 122v-122h-581q-87 0 -147.5 13t-99.5 55t-39 125q0 43 9.5 98.5t21.5 101.5l108 -6l-7 -63q-10 -73 -10 -100q0 -102 148 -102h314v378h134v-378h149zM300 625h103v-125h-103v125zM452 625h103v-125h-103v125z" />
    <glyph glyph-name="uniFE97" unicode="&#x62a;" horiz-adv-x="353" arabic-form="initial" 
d="M0 0zM283 500v-500h-283v122h149v378h134zM90 718h103v-125h-103v125zM242 718h103v-125h-103v125z" />
    <glyph glyph-name="uniFE98" unicode="&#x62a;" horiz-adv-x="433" arabic-form="medial" 
d="M0 0zM433 122v-122h-433v122h149v378h134v-378h150zM87 718h103v-125h-103v125zM239 718h103v-125h-103v125z" />
    <glyph glyph-name="uniFE9A" unicode="&#x62b;" horiz-adv-x="921" arabic-form="final" 
d="M54 0zM921 122v-122h-581q-87 0 -147.5 13t-99.5 55t-39 125q0 43 9.5 98.5t21.5 101.5l108 -6l-7 -63q-10 -73 -10 -100q0 -102 148 -102h314v378h134v-378h149zM380 758h96v-112h-96v112zM300 620h103v-120h-103v120zM452 620h103v-120h-103v120z" />
    <glyph glyph-name="uniFE9B" unicode="&#x62b;" horiz-adv-x="353" arabic-form="initial" 
d="M0 0zM283 500v-500h-283v122h149v378h134zM170 851h96v-112h-96v112zM90 713h103v-120h-103v120zM242 713h103v-120h-103v120z" />
    <glyph glyph-name="uniFE9C" unicode="&#x62b;" horiz-adv-x="433" arabic-form="medial" 
d="M0 0zM433 122v-122h-433v122h149v378h134v-378h150zM167 851h96v-112h-96v112zM87 713h103v-120h-103v120zM239 713h103v-120h-103v120z" />
    <glyph glyph-name="uniFE9E" unicode="&#x62c;" horiz-adv-x="637" arabic-form="final" 
d="M40 0zM637 122v-122h-238q-26 8 -59 14t-59 6q-50 0 -78.5 -26.5t-28.5 -77.5t30.5 -81.5t92.5 -30.5q27 0 80 5t108 14l15 -102q-49 -14 -115 -25.5t-115 -11.5q-110 0 -170 64.5t-60 176.5q0 103 53.5 157.5t158.5 54.5q40 0 79.5 -6.5t67.5 -15.5v195q0 43 -18.5 64.5
t-63.5 21.5q-92 -3 -160 -6l-51 -2l-4 89q52 14 126 23.5t125 9.5q94 0 136.5 -39.5t43.5 -125.5v-223h104zM276 -30h103v-120h-103v120z" />
    <glyph glyph-name="uniFE9F" unicode="&#x62c;" horiz-adv-x="571" arabic-form="initial" 
d="M0 0zM467.5 470.5q42.5 -39.5 43.5 -125.5v-345h-511v122h377v188q0 43 -18.5 64.5t-63.5 21.5q-92 -3 -160 -6l-51 -2l-4 89q52 14 126 23.5t125 9.5q94 0 136.5 -39.5zM241 -80h123v-130h-123v130z" />
    <glyph glyph-name="uniFEA0" unicode="&#x62c;" horiz-adv-x="614" arabic-form="medial" 
d="M0 0zM614 122v-122h-614v122h377v188q0 43 -18.5 64.5t-63.5 21.5q-92 -3 -160 -6l-51 -2l-4 89q52 14 126 23.5t125 9.5q94 0 136.5 -39.5t43.5 -125.5v-223h103zM247 -80h123v-130h-123v130z" />
    <glyph glyph-name="uniFEA2" unicode="&#x62d;" horiz-adv-x="637" arabic-form="final" 
d="M637 122v-122h-238q-26 8 -59 14t-59 6q-50 0 -78.5 -26.5t-28.5 -77.5t30.5 -81.5t92.5 -30.5q27 0 80 5t108 14l15 -102q-49 -14 -115 -25.5t-115 -11.5q-110 0 -170 64.5t-60 176.5q0 103 53.5 157.5t158.5 54.5q40 0 79.5 -6.5t67.5 -15.5v195q0 43 -18.5 64.5
t-63.5 21.5q-92 -3 -160 -6l-51 -2l-4 89q52 14 126 23.5t125 9.5q94 0 136.5 -39.5t43.5 -125.5v-223h104z" />
    <glyph glyph-name="uniFEA3" unicode="&#x62d;" horiz-adv-x="571" arabic-form="initial" 
d="M467.5 470.5q42.5 -39.5 43.5 -125.5v-345h-511v122h377v188q0 43 -18.5 64.5t-63.5 21.5q-92 -3 -160 -6l-51 -2l-4 89q52 14 126 23.5t125 9.5q94 0 136.5 -39.5z" />
    <glyph glyph-name="uniFEA4" unicode="&#x62d;" horiz-adv-x="614" arabic-form="medial" 
d="M614 122v-122h-614v122h377v188q0 43 -18.5 64.5t-63.5 21.5q-92 -3 -160 -6l-51 -2l-4 89q52 14 126 23.5t125 9.5q94 0 136.5 -39.5t43.5 -125.5v-223h103z" />
    <glyph glyph-name="uniFEA6" unicode="&#x62e;" horiz-adv-x="637" arabic-form="final" 
d="M40 0zM637 122v-122h-238q-26 8 -59 14t-59 6q-50 0 -78.5 -26.5t-28.5 -77.5t30.5 -81.5t92.5 -30.5q27 0 80 5t108 14l15 -102q-49 -14 -115 -25.5t-115 -11.5q-110 0 -170 64.5t-60 176.5q0 103 53.5 157.5t158.5 54.5q40 0 79.5 -6.5t67.5 -15.5v195q0 43 -18.5 64.5
t-63.5 21.5q-92 -3 -160 -6l-51 -2l-4 89q52 14 126 23.5t125 9.5q94 0 136.5 -39.5t43.5 -125.5v-223h104zM254 723h123v-130h-123v130z" />
    <glyph glyph-name="uniFEA7" unicode="&#x62e;" horiz-adv-x="571" arabic-form="initial" 
d="M0 0zM467.5 470.5q42.5 -39.5 43.5 -125.5v-345h-511v122h377v188q0 43 -18.5 64.5t-63.5 21.5q-92 -3 -160 -6l-51 -2l-4 89q52 14 126 23.5t125 9.5q94 0 136.5 -39.5zM241 723h123v-130h-123v130z" />
    <glyph glyph-name="uniFEA8" unicode="&#x62e;" horiz-adv-x="614" arabic-form="medial" 
d="M0 0zM614 122v-122h-614v122h377v188q0 43 -18.5 64.5t-63.5 21.5q-92 -3 -160 -6l-51 -2l-4 89q52 14 126 23.5t125 9.5q94 0 136.5 -39.5t43.5 -125.5v-223h103zM247 723h123v-130h-123v130z" />
    <glyph glyph-name="uniFEAA" unicode="&#x62f;" horiz-adv-x="599" arabic-form="final" 
d="M599 122v-122h-559v122h321v36q0 130 -49 185.5t-117 55.5h-101l-10 105q31 7 70.5 13t72.5 6q80 0 140.5 -39.5t94 -118.5t33.5 -194v-49h104z" />
    <glyph glyph-name="uniFEAC" unicode="&#x630;" horiz-adv-x="599" arabic-form="final" 
d="M40 0zM599 122v-122h-559v122h321v36q0 130 -49 185.5t-117 55.5h-101l-10 105q31 7 70.5 13t72.5 6q80 0 140.5 -39.5t94 -118.5t33.5 -194v-49h104zM108 750h123v-130h-123v130z" />
    <glyph glyph-name="uniFEAE" unicode="&#x631;" horiz-adv-x="445" arabic-form="final" 
d="M445 0h-165q-1 -118 -42.5 -183t-124.5 -65q-13 0 -73 4v120l34 -2q36 0 54 28.5t18 80.5v517h134v-378h165v-122z" />
    <glyph glyph-name="uniFEB0" unicode="&#x632;" horiz-adv-x="445" arabic-form="final" 
d="M40 0zM445 0h-165q-1 -118 -42.5 -183t-124.5 -65q-13 0 -73 4v120l34 -2q36 0 54 28.5t18 80.5v517h134v-378h165v-122zM151 723h123v-130h-123v130z" />
    <glyph glyph-name="uniFEB2" unicode="&#x633;" horiz-adv-x="1227" arabic-form="final" 
d="M1227 122v-122h-310q-33 0 -63.5 11t-49.5 26q-40 -37 -100 -37h-92v-40q0 -50 -30.5 -97.5t-95.5 -79t-163 -31.5q-109 0 -172 38t-87 91t-24 105q0 68 44 293l127 -7q-41 -216 -41 -266q0 -30 15 -60t49.5 -50.5t88.5 -20.5q49 0 84 17t53 45.5t18 60.5v452h134v-328
h46q38 0 58.5 30.5t20.5 78.5v219h134v-219q0 -51 -10 -91q9 -7 23.5 -12.5t29.5 -5.5h75v137q0 64 -2 108.5t-9 128.5l117 5q11 -64 19.5 -130t8.5 -93v-156h104z" />
    <glyph glyph-name="uniFEB3" unicode="&#x633;" horiz-adv-x="858" arabic-form="initial" 
d="M789.5 371q8.5 -66 8.5 -93v-278h-206q-33 0 -63.5 11t-49.5 26q-40 -37 -100 -37h-379v122h153v328h134v-328h46q38 0 58.5 30.5t20.5 78.5v219h134v-219q0 -51 -10 -91q9 -7 23.5 -12.5t29.5 -5.5h75v137q0 64 -2 108.5t-9 128.5l117 5q11 -64 19.5 -130z" />
    <glyph glyph-name="uniFEB4" unicode="&#x633;" horiz-adv-x="882" arabic-form="medial" 
d="M882 122v-122h-290q-33 0 -63.5 11t-49.5 26q-40 -37 -100 -37h-379v122h153v328h134v-328h46q38 0 58.5 30.5t20.5 78.5v219h134v-219q0 -51 -10 -91q9 -7 23.5 -12.5t29.5 -5.5h75v137q0 64 -2 108.5t-9 128.5l117 5q11 -64 19.5 -130t8.5 -93v-156h84z" />
    <glyph glyph-name="uniFEB6" unicode="&#x634;" horiz-adv-x="1227" arabic-form="final" 
d="M40 0zM1227 122v-122h-310q-33 0 -63.5 11t-49.5 26q-40 -37 -100 -37h-92v-40q0 -50 -30.5 -97.5t-95.5 -79t-163 -31.5q-109 0 -172 38t-87 91t-24 105q0 68 44 293l127 -7q-41 -216 -41 -266q0 -30 15 -60t49.5 -50.5t88.5 -20.5q49 0 84 17t53 45.5t18 60.5v452h134
v-328h46q38 0 58.5 30.5t20.5 78.5v219h134v-219q0 -51 -10 -91q9 -7 23.5 -12.5t29.5 -5.5h75v137q0 64 -2 108.5t-9 128.5l117 5q11 -64 19.5 -130t8.5 -93v-156h104zM758 851h96v-112h-96v112zM678 713h103v-120h-103v120zM830 713h103v-120h-103v120z" />
    <glyph glyph-name="uniFEB7" unicode="&#x634;" horiz-adv-x="858" arabic-form="initial" 
d="M0 0zM789.5 371q8.5 -66 8.5 -93v-278h-206q-33 0 -63.5 11t-49.5 26q-40 -37 -100 -37h-379v122h153v328h134v-328h46q38 0 58.5 30.5t20.5 78.5v219h134v-219q0 -51 -10 -91q9 -7 23.5 -12.5t29.5 -5.5h75v137q0 64 -2 108.5t-9 128.5l117 5q11 -64 19.5 -130zM433 851
h96v-112h-96v112zM353 713h103v-120h-103v120zM505 713h103v-120h-103v120z" />
    <glyph glyph-name="uniFEB8" unicode="&#x634;" horiz-adv-x="882" arabic-form="medial" 
d="M0 0zM882 122v-122h-290q-33 0 -63.5 11t-49.5 26q-40 -37 -100 -37h-379v122h153v328h134v-328h46q38 0 58.5 30.5t20.5 78.5v219h134v-219q0 -51 -10 -91q9 -7 23.5 -12.5t29.5 -5.5h75v137q0 64 -2 108.5t-9 128.5l117 5q11 -64 19.5 -130t8.5 -93v-156h84zM413 851
h96v-112h-96v112zM333 713h103v-120h-103v120zM485 713h103v-120h-103v120z" />
    <glyph glyph-name="uniFEBA" unicode="&#x635;" horiz-adv-x="1227" arabic-form="final" 
d="M1227 122v-122h-615v-40q0 -50 -30.5 -97.5t-95 -79t-162.5 -31.5q-109 0 -172.5 38t-87.5 90t-24 101q0 38 13.5 126t30.5 172l128 -7q-42 -222 -42 -266q0 -30 15 -60.5t49.5 -51t88.5 -20.5q49 0 84 17.5t53 46t18 60.5v502h134v-160q45 56 81.5 91t85.5 57t113 22
q126 0 178.5 -77.5t52.5 -181.5v-129h104zM722.5 321.5q-67.5 -66.5 -110.5 -153.5v-46h377v103q0 68 -33.5 115.5t-94.5 47.5q-71 0 -138.5 -66.5z" />
    <glyph glyph-name="uniFEBB" unicode="&#x635;" horiz-adv-x="837" arabic-form="initial" 
d="M724.5 432.5q52.5 -77.5 52.5 -181.5v-251h-777v122h132v378h134v-160q45 56 81.5 91t85.5 57t113 22q126 0 178.5 -77.5zM376.5 321.5q-67.5 -66.5 -110.5 -153.5v-46h377v103q0 68 -33.5 115.5t-94.5 47.5q-71 0 -138.5 -66.5z" />
    <glyph glyph-name="uniFEBC" unicode="&#x635;" horiz-adv-x="861" arabic-form="medial" 
d="M861 122v-122h-861v122h132v378h134v-160q45 56 81.5 91t85.5 57t113 22q126 0 178.5 -77.5t52.5 -181.5v-129h84zM376.5 321.5q-67.5 -66.5 -110.5 -153.5v-46h377v103q0 68 -33.5 115.5t-94.5 47.5q-71 0 -138.5 -66.5z" />
    <glyph glyph-name="uniFEBE" unicode="&#x636;" horiz-adv-x="1227" arabic-form="final" 
d="M40 0zM1227 122v-122h-615v-40q0 -50 -30.5 -97.5t-95 -79t-162.5 -31.5q-109 0 -172.5 38t-87.5 90t-24 101q0 38 13.5 126t30.5 172l128 -7q-42 -222 -42 -266q0 -30 15 -60.5t49.5 -51t88.5 -20.5q49 0 84 17.5t53 46t18 60.5v502h134v-160q45 56 81.5 91t85.5 57
t113 22q126 0 178.5 -77.5t52.5 -181.5v-129h104zM722.5 321.5q-67.5 -66.5 -110.5 -153.5v-46h377v103q0 68 -33.5 115.5t-94.5 47.5q-71 0 -138.5 -66.5zM759 723h123v-130h-123v130z" />
    <glyph glyph-name="uniFEBF" unicode="&#x636;" horiz-adv-x="837" arabic-form="initial" 
d="M0 0zM724.5 432.5q52.5 -77.5 52.5 -181.5v-251h-777v122h132v378h134v-160q45 56 81.5 91t85.5 57t113 22q126 0 178.5 -77.5zM376.5 321.5q-67.5 -66.5 -110.5 -153.5v-46h377v103q0 68 -33.5 115.5t-94.5 47.5q-71 0 -138.5 -66.5zM434 723h123v-130h-123v130z" />
    <glyph glyph-name="uniFEC0" unicode="&#x636;" horiz-adv-x="861" arabic-form="medial" 
d="M0 0zM861 122v-122h-861v122h132v378h134v-160q45 56 81.5 91t85.5 57t113 22q126 0 178.5 -77.5t52.5 -181.5v-129h84zM376.5 321.5q-67.5 -66.5 -110.5 -153.5v-46h377v103q0 68 -33.5 115.5t-94.5 47.5q-71 0 -138.5 -66.5zM414 723h123v-130h-123v130z" />
    <glyph glyph-name="uniFEC2" unicode="&#x637;" horiz-adv-x="813" arabic-form="final" 
d="M813 122v-122h-803v122h54v578h134v-360q45 56 81.5 91t85.5 57t113 22q126 0 178.5 -77.5t52.5 -181.5v-129h104zM308.5 321.5q-67.5 -66.5 -110.5 -153.5v-46h377v103q0 68 -33.5 115.5t-94.5 47.5q-71 0 -138.5 -66.5z" />
    <glyph glyph-name="uniFEC3" unicode="&#x637;" horiz-adv-x="789" arabic-form="initial" 
d="M676.5 432.5q52.5 -77.5 52.5 -181.5v-251h-729v122h84v578h134v-360q45 56 81.5 91t85.5 57t113 22q126 0 178.5 -77.5zM346 334q-56 -54 -92 -119.5t-36 -83.5v-9h377v103q0 69 -33.5 116t-93.5 47q-66 0 -122 -54z" />
    <glyph glyph-name="uniFEC4" unicode="&#x637;" horiz-adv-x="813" arabic-form="medial" 
d="M813 122v-122h-813v122h84v578h134v-360q45 56 81.5 91t85.5 57t113 22q126 0 178.5 -77.5t52.5 -181.5v-129h84zM346 334q-56 -54 -92 -119.5t-36 -83.5v-9h377v103q0 69 -33.5 116t-93.5 47q-66 0 -122 -54z" />
    <glyph glyph-name="uniFEC6" unicode="&#x638;" horiz-adv-x="813" arabic-form="final" 
d="M10 0zM813 122v-122h-803v122h54v578h134v-360q45 56 81.5 91t85.5 57t113 22q126 0 178.5 -77.5t52.5 -181.5v-129h104zM308.5 321.5q-67.5 -66.5 -110.5 -153.5v-46h377v103q0 68 -33.5 115.5t-94.5 47.5q-71 0 -138.5 -66.5zM318 723h123v-130h-123v130z" />
    <glyph glyph-name="uniFEC7" unicode="&#x638;" horiz-adv-x="789" arabic-form="initial" 
d="M0 0zM676.5 432.5q52.5 -77.5 52.5 -181.5v-251h-729v122h84v578h134v-360q45 56 81.5 91t85.5 57t113 22q126 0 178.5 -77.5zM346 334q-56 -54 -92 -119.5t-36 -83.5v-9h377v103q0 69 -33.5 116t-93.5 47q-66 0 -122 -54zM338 723h123v-130h-123v130z" />
    <glyph glyph-name="uniFEC8" unicode="&#x638;" horiz-adv-x="813" arabic-form="medial" 
d="M0 0zM813 122v-122h-813v122h84v578h134v-360q45 56 81.5 91t85.5 57t113 22q126 0 178.5 -77.5t52.5 -181.5v-129h84zM346 334q-56 -54 -92 -119.5t-36 -83.5v-9h377v103q0 69 -33.5 116t-93.5 47q-66 0 -122 -54zM318 723h123v-130h-123v130z" />
    <glyph glyph-name="uniFECA" unicode="&#x639;" horiz-adv-x="642" arabic-form="final" 
d="M642 122v-122h-131q-50 0 -100.5 11t-96.5 32l-61 -25q-71 -14 -71 -102q0 -112 115 -112q27 0 80 5t108 14l15 -102l-36 -9q-47 -12 -100.5 -20t-93.5 -8q-110 0 -170 64.5t-60 176.5q0 85 36.5 137t108.5 68q-68 62 -105.5 112t-38.5 104l-2 88q47 30 123 54t150 24
q73 0 150.5 -24t126.5 -54l-4 -88q0 -55 -36.5 -103t-107.5 -113q37 -8 69 -8h132zM422.5 276q34.5 48 34.5 89q-74 25 -144 25q-69 0 -141 -25q0 -42 36 -92t106 -91q74 46 108.5 94z" />
    <glyph glyph-name="uniFECB" unicode="&#x639;" horiz-adv-x="577" arabic-form="initial" 
d="M547 122v-122h-547v122h141q-33 60 -33 143q0 88 37.5 143.5t92.5 79.5t109 24q37 0 85.5 -10.5t84.5 -28.5l-6 -126q-31 15 -74.5 29t-77.5 14q-46 0 -81.5 -30t-35.5 -101q0 -46 15.5 -80.5t37.5 -56.5h252z" />
    <glyph glyph-name="uniFECC" unicode="&#x639;" horiz-adv-x="666" arabic-form="medial" 
d="M666 122v-122h-131q-50 0 -101.5 11.5t-96.5 31.5q-45 -20 -95.5 -31.5t-96.5 -11.5h-145v122h142q31 0 68 8q-71 64 -107.5 113t-36.5 103l-3 88q47 30 123 54t150 24q73 0 150.5 -24t126.5 -54l-4 -88q0 -55 -36.5 -103t-107.5 -113q37 -8 69 -8h132zM446.5 276
q34.5 48 34.5 89q-74 25 -144 25q-69 0 -141 -25q0 -42 36 -92t106 -91q74 46 108.5 94z" />
    <glyph glyph-name="uniFECE" unicode="&#x63a;" horiz-adv-x="642" arabic-form="final" 
d="M39 0zM642 122v-122h-131q-50 0 -100.5 11t-96.5 32l-61 -25q-71 -14 -71 -102q0 -112 115 -112q27 0 80 5t108 14l15 -102l-36 -9q-47 -12 -100.5 -20t-93.5 -8q-110 0 -170 64.5t-60 176.5q0 85 36.5 137t108.5 68q-68 62 -105.5 112t-38.5 104l-2 88q47 30 123 54
t150 24q73 0 150.5 -24t126.5 -54l-4 -88q0 -55 -36.5 -103t-107.5 -113q37 -8 69 -8h132zM422.5 276q34.5 48 34.5 89q-74 25 -144 25q-69 0 -141 -25q0 -42 36 -92t106 -91q74 46 108.5 94zM249 723h123v-130h-123v130z" />
    <glyph glyph-name="uniFECF" unicode="&#x63a;" horiz-adv-x="577" arabic-form="initial" 
d="M0 0zM547 122v-122h-547v122h141q-33 60 -33 143q0 88 37.5 143.5t92.5 79.5t109 24q37 0 85.5 -10.5t84.5 -28.5l-6 -126q-31 15 -74.5 29t-77.5 14q-46 0 -81.5 -30t-35.5 -101q0 -46 15.5 -80.5t37.5 -56.5h252zM288 723h123v-130h-123v130z" />
    <glyph glyph-name="uniFED0" unicode="&#x63a;" horiz-adv-x="666" arabic-form="medial" 
d="M0 0zM666 122v-122h-131q-50 0 -101.5 11.5t-96.5 31.5q-45 -20 -95.5 -31.5t-96.5 -11.5h-145v122h142q31 0 68 8q-71 64 -107.5 113t-36.5 103l-3 88q47 30 123 54t150 24q73 0 150.5 -24t126.5 -54l-4 -88q0 -55 -36.5 -103t-107.5 -113q37 -8 69 -8h132zM446.5 276
q34.5 48 34.5 89q-74 25 -144 25q-69 0 -141 -25q0 -42 36 -92t106 -91q74 46 108.5 94zM271 723h123v-130h-123v130z" />
    <glyph glyph-name="uniFED2" unicode="&#x641;" horiz-adv-x="1053" arabic-form="final" 
d="M40 0zM1053 122v-122h-727q-87 0 -147.5 13t-99.5 55.5t-39 125.5q0 43 9.5 97.5t21.5 101.5l108 -6q-7 -56 -8 -70q-9 -74 -9 -93q0 -102 148 -102h197q-17 61 -17 138q0 91 28.5 143t86.5 74t153 22q84 0 147 -7l52 -6v-364h96zM631 173.5q5 -23.5 14 -51.5h178v255
q-43 3 -69 3q-54 0 -80.5 -12t-37 -42t-10.5 -91q0 -38 5 -61.5zM713 723h123v-130h-123v130z" />
    <glyph glyph-name="uniFED3" unicode="&#x641;" horiz-adv-x="607" arabic-form="initial" 
d="M0 0zM557 486v-486h-557v122h107q-17 61 -17 138q0 91 28.5 143t86.5 74t153 22q84 0 147 -7zM231 173.5q5 -23.5 14 -51.5h178v255q-44 3 -69 3q-54 0 -80.5 -12t-37 -42t-10.5 -91q0 -38 5 -61.5zM272 723h123v-130h-123v130z" />
    <glyph glyph-name="uniFED4" unicode="&#x641;" horiz-adv-x="654" arabic-form="medial" 
d="M0 0zM654 122v-122h-654v122h107q-17 61 -17 138q0 91 28.5 143t86.5 74t153 22q84 0 147 -7l52 -6v-364h97zM231 173.5q5 -23.5 14 -51.5h178v255q-44 3 -69 3q-54 0 -80.5 -12t-37 -42t-10.5 -91q0 -38 5 -61.5zM292 723h123v-130h-123v130z" />
    <glyph glyph-name="uniFED6" unicode="&#x642;" horiz-adv-x="967" arabic-form="final" 
d="M40 0zM967 0h-123v-38q0 -64 -29 -118t-88.5 -87t-146.5 -33h-281q-88 0 -146 33t-85.5 87.5t-27.5 119.5q0 83 41 313l125 -21l-7 -47q-14 -88 -21.5 -143t-7.5 -88q0 -58 29.5 -95t99.5 -37h281q69 0 99.5 37t30.5 93v24h-124q-79 0 -122 16.5t-64 66.5t-21 152
q0 109 25.5 165.5t81.5 77.5t159 21q82 0 147 -7l52 -6v-364h123v-122zM523.5 158.5q10.5 -24.5 31.5 -30.5t64 -6h91v253q-30 2 -61 2q-53 0 -81.5 -11t-41.5 -41t-13 -88q0 -54 10.5 -78.5zM534 718h103v-125h-103v125zM686 718h103v-125h-103v125z" />
    <glyph glyph-name="uniFED7" unicode="&#x642;" horiz-adv-x="607" arabic-form="initial" 
d="M0 0zM557 486v-486h-557v122h107q-17 61 -17 138q0 91 28.5 143t86.5 74t153 22q84 0 147 -7zM231 173.5q5 -23.5 14 -51.5h178v255q-44 3 -69 3q-54 0 -80.5 -12t-37 -42t-10.5 -91q0 -38 5 -61.5zM206 718h103v-125h-103v125zM358 718h103v-125h-103v125z" />
    <glyph glyph-name="uniFED8" unicode="&#x642;" horiz-adv-x="654" arabic-form="medial" 
d="M0 0zM654 122v-122h-654v122h107q-17 61 -17 138q0 91 28.5 143t86.5 74t153 22q84 0 147 -7l52 -6v-364h97zM231 173.5q5 -23.5 14 -51.5h178v255q-44 3 -69 3q-54 0 -80.5 -12t-37 -42t-10.5 -91q0 -38 5 -61.5zM226 718h103v-125h-103v125zM378 718h103v-125h-103v125
z" />
    <glyph glyph-name="uniFEDA" unicode="&#x643;" horiz-adv-x="872" arabic-form="final" 
d="M40 0zM872 122v-122h-546q-87 0 -147.5 13t-99.5 55t-39 125q0 70 24 170l112 -6l-5 -41q-9 -72 -9 -92q0 -102 148 -102h279v578h134v-578h149zM492 385l-219 -43l-11 47l46 12q-39 33 -39 81q0 41 29.5 71t75.5 30q39 0 78 -24l-13 -60q-6 5 -17 9.5t-25 4.5
q-23 0 -37.5 -15t-14.5 -36q0 -28 24 -45l109 29z" />
    <glyph glyph-name="uniFEDB" unicode="&#x643;" horiz-adv-x="639" arabic-form="initial" 
d="M507 442q43 -43 57.5 -97t14.5 -101v-244h-579v122h445v123q0 52 -24.5 85t-58.5 33h-268l-69 93l60 117q20 40 54 85.5t64 78.5l99 -56q-52 -74 -98 -161l-18 -35h198q80 0 123 -43z" />
    <glyph glyph-name="uniFEDC" unicode="&#x643;" horiz-adv-x="712" arabic-form="medial" 
d="M712 122v-122h-712v122h445v123q0 52 -24.5 85t-58.5 33h-268l-69 93l60 117q20 40 54 85.5t64 78.5l99 -56q-52 -74 -98 -161l-18 -35h198q80 0 123 -43t57.5 -97t14.5 -101v-122h133z" />
    <glyph glyph-name="uniFEDE" unicode="&#x644;" horiz-adv-x="733" arabic-form="final" 
d="M733 0h-117v-14q0 -64 -34.5 -117.5t-98 -85t-147.5 -31.5q-85 0 -151.5 31.5t-104 85.5t-37.5 119q0 64 36 287l126 -7q-12 -76 -22 -158t-10 -108q0 -35 20 -64.5t56.5 -46.5t81.5 -17t79.5 17t53 46t18.5 63v700h134v-578h117v-122z" />
    <glyph glyph-name="uniFEDF" unicode="&#x644;" horiz-adv-x="337" arabic-form="initial" 
d="M257 700v-700h-257v122h123v578h134z" />
    <glyph glyph-name="uniFEE0" unicode="&#x644;" horiz-adv-x="362" arabic-form="medial" 
d="M362 122v-122h-362v122h123v578h134v-578h105z" />
    <glyph glyph-name="uniFEE2" unicode="&#x645;" horiz-adv-x="709" arabic-form="final" 
d="M709 122v-122h-55q-17 0 -32 12t-22 31v-43h-324q-44 0 -78 -28.5t-34 -109.5q0 -62 27 -186l-114 -4q-14 61 -25.5 132.5t-11.5 119.5q0 70 25.5 113.5t65.5 64.5q-18 76 -18 147q0 55 11 118t25 109q27 13 80 23t118 10q103 0 158.5 -30t75 -85t19.5 -144v-85
q7 -20 22 -31.5t32 -11.5h55zM466 122v131q0 70 -27.5 103t-105.5 33q-38 0 -76 -8q-14 -75 -14 -132q0 -34 4.5 -69.5t9.5 -57.5h209z" />
    <glyph glyph-name="uniFEE3" unicode="&#x645;" horiz-adv-x="679" arabic-form="initial" 
d="M534.5 479q55.5 -30 75 -85t19.5 -144v-250h-629v122h156q-14 72 -14 127t11 118t25 109q27 13 80 23t118 10q103 0 158.5 -30zM276.5 179.5q4.5 -35.5 9.5 -57.5h209v131q0 70 -27.5 103t-105.5 33q-38 0 -76 -8q-14 -75 -14 -132q0 -34 4.5 -69.5z" />
    <glyph glyph-name="uniFEE4" unicode="&#x645;" horiz-adv-x="738" arabic-form="medial" 
d="M738 122v-122h-55q-17 0 -32 12t-22 31v-43h-629v122h156q-14 72 -14 127t11 118t25 109q27 13 80 23t118 10q103 0 158.5 -30t75 -85t19.5 -144v-85q7 -20 22 -31.5t32 -11.5h55zM276.5 179.5q4.5 -35.5 9.5 -57.5h209v131q0 70 -27.5 103t-105.5 33q-38 0 -76 -8
q-14 -75 -14 -132q0 -34 4.5 -69.5z" />
    <glyph glyph-name="uniFEE6" unicode="&#x646;" horiz-adv-x="716" arabic-form="final" 
d="M40 0zM716 0h-103v-14q0 -64 -34.5 -117.5t-98 -85t-147.5 -31.5q-85 0 -151.5 31.5t-104 85.5t-37.5 119q0 64 36 287l126 -7q-12 -76 -22 -158t-10 -108q0 -35 20 -64.5t56.5 -46.5t81.5 -17t79.5 17t53 46t18.5 63v500h134v-378h103v-122zM272 630h123v-130h-123v130z
" />
    <glyph glyph-name="uniFEE7" unicode="&#x646;" horiz-adv-x="353" arabic-form="initial" 
d="M0 0zM283 500v-500h-283v122h149v378h134zM156 723h123v-130h-123v130z" />
    <glyph glyph-name="uniFEE8" unicode="&#x646;" horiz-adv-x="433" arabic-form="medial" 
d="M0 0zM433 122v-122h-433v122h149v378h134v-378h150zM153 723h123v-130h-123v130z" />
    <glyph glyph-name="uniFEEA" unicode="&#x647;" horiz-adv-x="661" arabic-form="final" 
d="M661 122v-122h-353q-99 0 -156 21t-84.5 76.5t-27.5 161.5q0 101 26 154.5t84 75t163 21.5q56 0 134 -4t110 -9v-375h104zM188.5 173.5q14.5 -29.5 44.5 -40.5t82 -11h108v261q-50 5 -105 5t-85.5 -11t-44.5 -38.5t-14 -79.5q0 -56 14.5 -85.5z" />
    <glyph glyph-name="uniFEEB" unicode="&#x647;" horiz-adv-x="797" arabic-form="initial" 
d="M589.5 532.5q77.5 -45.5 117.5 -127t40 -188.5v-217h-747v122h105v19q0 53 26.5 101t74.5 77.5t107 29.5t106 -29.5t73.5 -77.5t26.5 -100v-20h94v95q0 136 -73.5 188t-166.5 52q-41 0 -93.5 -7.5t-138.5 -21.5l-11 107q76 19 144 31t129 12q109 0 186.5 -45.5z
M260.5 202.5q-20.5 -24.5 -20.5 -59.5v-21h145v22q0 35 -21 59t-52 24t-51.5 -24.5z" />
    <glyph glyph-name="uniFEEC" unicode="&#x647;" horiz-adv-x="836" arabic-form="medial" 
d="M836 122v-122h-836v122h105v19q0 53 26.5 101t74.5 77.5t107 29.5t106 -29.5t73.5 -77.5t26.5 -100v-20h94v95q0 136 -73.5 188t-166.5 52q-41 0 -93.5 -7.5t-138.5 -21.5l-11 107q76 19 144 31t129 12q109 0 186.5 -45.5t117.5 -127t40 -188.5v-95h89zM260.5 202.5
q-20.5 -24.5 -20.5 -59.5v-21h145v22q0 35 -21 59t-52 24t-51.5 -24.5z" />
    <glyph glyph-name="uniFEEE" unicode="&#x648;" horiz-adv-x="625" arabic-form="final" 
d="M625 0h-126q-22 -248 -208 -248q-54 0 -174 19v121q120 -18 162 -18q32 0 50 11t26.5 38t8.5 77h-116q-207 0 -207 234q0 119 26.5 181t75 83.5t127.5 21.5q58 0 123 -7.5t109 -17.5v-373h123v-122zM197 156.5q22 -34.5 88 -34.5h83v271q-38 5 -73 5q-42 0 -67 -11.5
t-39 -45t-14 -99.5q0 -51 22 -85.5z" />
    <glyph glyph-name="uniFEF0" unicode="&#x649;" horiz-adv-x="962" arabic-form="final" 
d="M962 0h-114q-3 -128 -65 -188t-170 -60h-279q-69 0 -137 26t-112.5 80t-44.5 132q0 35 8.5 93t18.5 107l125 -20q-7 -42 -12.5 -90.5t-5.5 -69.5q0 -38 19.5 -69t54.5 -49t81 -18h276q55 0 80 28t26 98h-3q-46 0 -82 9.5t-74 36.5l58 104q26 -20 46 -24t62 -4h244v-122z
" />
    <glyph glyph-name="uniFEF2" unicode="&#x64a;" horiz-adv-x="962" arabic-form="final" 
d="M40 0zM962 0h-114q-3 -128 -65 -188t-170 -60h-279q-69 0 -137 26t-112.5 80t-44.5 132q0 35 8.5 93t18.5 107l125 -20q-7 -42 -12.5 -90.5t-5.5 -69.5q0 -38 19.5 -69t54.5 -49t81 -18h276q55 0 80 28t26 98h-3q-46 0 -82 9.5t-74 36.5l58 104q26 -20 46 -24t62 -4h244
v-122zM326 -320h103v-125h-103v125zM478 -320h103v-125h-103v125z" />
    <glyph glyph-name="uniFEF3" unicode="&#x64a;" horiz-adv-x="353" arabic-form="initial" 
d="M0 0zM283 500v-500h-283v122h149v378h134zM90 -80h103v-125h-103v125zM242 -80h103v-125h-103v125z" />
    <glyph glyph-name="uniFEF4" unicode="&#x64a;" horiz-adv-x="433" arabic-form="medial" 
d="M0 0zM433 122v-122h-433v122h149v378h134v-378h150zM87 -80h103v-125h-103v125zM239 -80h103v-125h-103v125z" />
    <glyph glyph-name=".notdef" horiz-adv-x="235" 
 />
    <glyph glyph-name="uni0000" horiz-adv-x="0" 
 />
    <glyph glyph-name="uni0000" horiz-adv-x="0" 
 />
    <glyph glyph-name="nonmarkingreturn" horiz-adv-x="235" 
 />
    <glyph glyph-name="uni000D" unicode="&#xd;" horiz-adv-x="333" 
 />
    <glyph glyph-name="space" unicode=" " horiz-adv-x="220" 
 />
    <glyph glyph-name="exclam" unicode="!" horiz-adv-x="280" 
d="M68 680h145l-14 -430h-118zM68 161h144v-161h-144v161z" />
    <glyph glyph-name="quotedbl" unicode="&#x22;" horiz-adv-x="411" 
d="M56 680h129l-7 -240h-118zM228 680h129l-7 -240h-118z" />
    <glyph glyph-name="numbersign" unicode="#" 
d="M112 149h-96v112h96v126h-96v112h96v161h116v-161h104v161h116v-161h96v-112h-96v-126h96v-112h-96v-149h-116v149h-104v-149h-116v149zM332 261v126h-104v-126h104z" />
    <glyph glyph-name="dollar" unicode="$" 
d="M190 -123l14 116q-76 9 -124 21l-20 4l13 104q81 -11 146 -15l22 174q-104 31 -146.5 76t-42.5 120q0 96 59 145.5t166 49.5h13l18 138h74l-18 -144q21 -2 58 -7t56 -9l17 -4l-11 -106q-73 7 -135 12l-20 -161q68 -22 106 -44.5t55.5 -56t17.5 -87.5q0 -106 -61 -160.5
t-167 -54.5h-1l-15 -118q-74 3 -74 7zM275 554q-90 -4 -90 -69q0 -24 15.5 -39t57.5 -31zM355 131.5q20 21.5 20 56.5q0 27 -13.5 41.5t-48.5 29.5l-19 -153q41 4 61 25.5z" />
    <glyph glyph-name="percent" unicode="%" 
d="M125 -8l235 707l73 -26l-235 -705zM14 527q0 145 120 145t120 -145q0 -146 -120 -146t-120 146zM156 527q0 65 -22 65t-22 -65q0 -66 22 -66t22 66zM306 134q0 145 120 145t120 -145q0 -146 -120 -146t-120 146zM448 134q0 65 -22 65t-22 -65q0 -66 22 -66t22 66z" />
    <glyph glyph-name="ampersand" unicode="&#x26;" horiz-adv-x="701" 
d="M35 200q0 75 33.5 122.5t108.5 76.5q-38 45 -52 78t-14 69q0 83 54 124.5t152 41.5t150.5 -41.5t52.5 -124.5q0 -59 -30.5 -102t-106.5 -95l98 -98q6 15 12 57.5t7 70.5l130 -3q-15 -116 -51 -203l112 -98l-76 -87l-106 87q-44 -44 -95 -65.5t-131 -21.5q-248 0 -248 212
zM367.5 479q16.5 24 16.5 54q0 65 -67 65q-35 0 -52.5 -16.5t-17.5 -46.5q0 -24 11 -45.5t34 -46.5l17 -18q42 30 58.5 54zM365.5 119q37.5 11 52.5 29l-173 173q-74 -36 -74 -114q0 -99 116 -99q41 0 78.5 11z" />
    <glyph glyph-name="quotesingle" unicode="'" horiz-adv-x="239" 
d="M56 680h129l-7 -240h-118z" />
    <glyph glyph-name="parenleft" unicode="(" horiz-adv-x="308" 
d="M72.5 71q-34.5 125 -34.5 230q0 113 32.5 233t83.5 216h127q-34 -87 -64.5 -225.5t-30.5 -223.5q0 -174 95 -426h-127q-47 71 -81.5 196z" />
    <glyph glyph-name="parenright" unicode=")" horiz-adv-x="308" 
d="M27 -125q95 252 95 426q0 86 -30.5 225t-64.5 224h127q53 -105 84.5 -223t31.5 -226q0 -107 -35 -231.5t-81 -194.5h-127z" />
    <glyph glyph-name="asterisk" unicode="*" horiz-adv-x="425" 
d="M190 478l-103 -79l-47 59l105 78l-102 73l46 63l101 -73l39 121l75 -25l-38 -122h123v-74h-123l38 -120l-73 -22z" />
    <glyph glyph-name="plus" unicode="+" 
d="M219 191h-169v120h169v168h120v-168h171v-120h-171v-170h-120v170z" />
    <glyph glyph-name="comma" unicode="," horiz-adv-x="263" 
d="M70 137h148l-90 -260h-108z" />
    <glyph glyph-name="hyphen" unicode="-" horiz-adv-x="408" 
d="M56 327h296v-122h-296v122z" />
    <glyph glyph-name="period" unicode="." horiz-adv-x="256" 
d="M56 166h144v-166h-144v166z" />
    <glyph glyph-name="slash" unicode="/" horiz-adv-x="466" 
d="M31 8l288 710l118 -42l-288 -710z" />
    <glyph glyph-name="zero" unicode="0" 
d="M87 71.5q-63 81.5 -63 260.5t63 260.5t193 81.5t193 -81.5t63 -260.5t-63 -260.5t-193 -81.5t-193 81.5zM346 131.5q25 21.5 36.5 70t11.5 130.5t-11.5 130.5t-36.5 70t-66 21.5t-66 -21.5t-36.5 -70t-11.5 -130.5t11.5 -130.5t36.5 -70t66 -21.5t66 21.5z" />
    <glyph glyph-name="one" unicode="1" 
d="M280 504l-143 -92l-63 103l218 145h126v-660h-138v504z" />
    <glyph glyph-name="two" unicode="2" 
d="M65 117l141 143q55 57 82 89t39.5 59t12.5 58q0 45 -23.5 64.5t-70.5 19.5q-66 0 -146 -12l-24 -3l-7 107q98 30 203 30q210 0 210 -189q0 -50 -13.5 -88.5t-45 -78t-89.5 -92.5l-115 -104h274v-120h-428v117z" />
    <glyph glyph-name="three" unicode="3" 
d="M89 14l-32 8l7 105q110 -19 178 -19q58 0 85.5 20.5t27.5 61.5q0 42 -26 64.5t-70 22.5h-133v114h133q33 0 58.5 28t25.5 65q0 35 -26.5 51.5t-83.5 16.5q-47 0 -136 -14l-26 -4l-9 102q92 36 202 36q115 0 168 -42.5t53 -134.5q0 -54 -18.5 -89.5t-58.5 -63.5
q35 -19 53.5 -36t27 -42.5t8.5 -67.5q0 -106 -54.5 -157t-173.5 -51q-78 0 -180 26z" />
    <glyph glyph-name="four" unicode="4" 
d="M320 109h-280v105l163 446h152l-177 -431h142v185h138v-185h63v-120h-63v-109h-138v109z" />
    <glyph glyph-name="five" unicode="5" 
d="M182.5 -3.5q-58.5 8.5 -96.5 19.5l-36 9l15 102q118 -19 202 -19q49 0 75 26t26 75q0 92 -84 92q-69 0 -118 -13l-15 -4l-82 19l18 357h403v-120h-295l-17 -143q62 24 118 24q214 0 214 -199q0 -112 -59 -173t-167 -61q-43 0 -101.5 8.5z" />
    <glyph glyph-name="six" unicode="6" 
d="M97.5 76.5q-62.5 88.5 -62.5 260.5q0 169 70 252t205 83q80 0 167 -22l31 -7l-12 -106q-102 15 -177 15q-142 0 -142 -154l21 6q64 19 105 19q114 0 170.5 -52t56.5 -161t-63.5 -165.5t-185.5 -56.5q-121 0 -183.5 88.5zM362 134.5q26 26.5 26 74.5q0 94 -97 94
q-45 0 -98 -17l-17 -5q0 -173 112 -173q48 0 74 26.5z" />
    <glyph glyph-name="seven" unicode="7" 
d="M128 24l225 481v32h-284v123h422v-156l-235 -516z" />
    <glyph glyph-name="eight" unicode="8" 
d="M28 168q0 61 18.5 97.5t64.5 74.5q-42 33 -57 65.5t-15 86.5q0 85 65 133q65 47 174 47q110 0 176.5 -48.5t66.5 -132.5q0 -58 -14 -87t-58 -64q46 -38 64 -71.5t18 -89.5q0 -95 -67.5 -143t-185.5 -48q-250 0 -250 180zM324 392q49 34 49 78q0 78 -93 78t-93 -81
q0 -41 49 -75h88zM383 200q0 52 -59 75h-88q-60 -22 -60 -75q0 -88 104 -88q103 0 103 88z" />
    <glyph glyph-name="nine" unicode="9" 
d="M81 10l-31 7l12 106q102 -15 186 -15q133 0 133 162q-50 -16 -78 -23t-48 -7q-110 0 -168.5 53.5t-58.5 157.5q0 105 65.5 163t184.5 58q120 0 182.5 -89t62.5 -262q0 -172 -69 -252.5t-206 -80.5q-80 0 -167 22zM366 378l16 5q0 169 -112 169q-48 0 -74 -26.5t-26 -74.5
q0 -91 97 -91q46 0 99 18z" />
    <glyph glyph-name="colon" unicode=":" horiz-adv-x="256" 
d="M56 455h144v-166h-144v166zM56 166h144v-166h-144v166z" />
    <glyph glyph-name="semicolon" unicode=";" horiz-adv-x="279" 
d="M69 455h144v-166h-144v166zM77 137h148l-90 -260h-108z" />
    <glyph glyph-name="less" unicode="&#x3c;" 
d="M66 196v110l406 183v-136l-261 -99l261 -108v-136z" />
    <glyph glyph-name="equal" unicode="=" 
d="M58 416h444v-121h-444v121zM58 208h444v-121h-444v121z" />
    <glyph glyph-name="greater" unicode="&#x3e;" 
d="M88 146l261 108l-261 99v136l406 -183v-110l-406 -186v136z" />
    <glyph glyph-name="question" unicode="?" horiz-adv-x="437" 
d="M112 308q0 36 64 87q39 31 55.5 46t26.5 32.5t10 39.5q0 59 -85 59q-59 0 -144 -16l-7 101q87 35 182 35q193 0 193 -156q0 -54 -6.5 -84.5t-23 -53t-51.5 -48.5q-42 -31 -59 -52.5t-17 -49.5v-31h-107q-31 34 -31 91zM121 161h144v-161h-144v161z" />
    <glyph glyph-name="at" unicode="@" horiz-adv-x="973" 
d="M303.5 -185.5q-82.5 23.5 -143.5 75.5q-122 107 -122 371q0 152 56 257t161 158t250 53q216 0 327.5 -108t111.5 -316v-8q0 -152 -48 -224.5t-145 -72.5q-46 0 -81 15t-52 41q-80 -56 -148 -56q-95 0 -141 59.5t-46 188.5q0 132 44 192t147 60q36 0 76 -18l15 -7v13h134
v-179q0 -138 6 -158q5 -23 14.5 -31t29.5 -8q39 0 50 47t11 138v9q0 160 -73 232.5t-234 72.5t-246 -92t-85 -267q0 -119 33.5 -194t106 -112t191.5 -37l143 9l5 -117q-86 -10 -148 -10q-117 0 -199.5 23.5zM571 143q-6 36 -6 106v123q-40 10 -61 10q-35 0 -53 -12.5
t-25 -40t-7 -78.5q0 -133 62 -133q39 0 90 25z" />
    <glyph glyph-name="A" unicode="A" horiz-adv-x="602" 
d="M420 123h-238l-27 -123h-138l153 680h262l153 -680h-138zM325 566h-48l-69 -323h186z" />
    <glyph glyph-name="B" unicode="B" horiz-adv-x="609" 
d="M74 680h267q109 0 160.5 -43.5t51.5 -140.5q0 -52 -17 -86t-58 -60q45 -18 66.5 -55t21.5 -97q0 -100 -57 -149t-164 -49h-271v680zM335 400q78 0 78 81t-79 81h-122v-162h123zM338 118q45 0 66.5 18.5t21.5 62.5t-21 64.5t-67 20.5h-126v-166h126z" />
    <glyph glyph-name="C" unicode="C" horiz-adv-x="543" 
d="M148 26q-58 38 -79.5 112.5t-21.5 198.5q0 136 23.5 212t78.5 109.5t154 33.5q91 0 203 -27l-4 -110q-99 15 -161 15q-63 0 -95 -20t-44.5 -65.5t-12.5 -128.5v-37q2 -86 12.5 -128.5t41.5 -61.5t95 -19q68 0 164 14l3 -113q-109 -23 -191 -23q-108 0 -166 38z" />
    <glyph glyph-name="D" unicode="D" horiz-adv-x="638" 
d="M481 647.5q62 -32.5 86.5 -102.5t24.5 -194q0 -129 -24 -204t-86.5 -111t-178.5 -36h-229v680h229q116 0 178 -32.5zM399.5 146q31.5 26 41 74.5t9.5 138.5q0 80 -10 121t-41 60.5t-96 19.5h-91v-440h91q65 0 96.5 26z" />
    <glyph glyph-name="E" unicode="E" horiz-adv-x="554" 
d="M212 560v-159h242v-118h-242v-163h302v-120h-440v680h440v-120h-302z" />
    <glyph glyph-name="F" unicode="F" horiz-adv-x="531" 
d="M212 560v-200h242v-120h-242v-240h-138v680h434v-120h-296z" />
    <glyph glyph-name="G" unicode="G" horiz-adv-x="611" 
d="M157.5 25q-60.5 37 -86.5 114t-26 204q0 125 27 201.5t86.5 112t159.5 35.5q93 0 201 -21l36 -7l-4 -107q-116 13 -196 13q-79 0 -115 -26.5t-44.5 -72t-8.5 -135.5q0 -89 12 -137t43.5 -69.5t93.5 -21.5q59 0 83 4v132h-62v120h198v-353q-146 -23 -232 -23
q-105 0 -165.5 37z" />
    <glyph glyph-name="H" unicode="H" horiz-adv-x="677" 
d="M603 680v-680h-138v282h-253v-282h-138v680h138v-278h253v278h138z" />
    <glyph glyph-name="I" unicode="I" horiz-adv-x="286" 
d="M74 680h138v-680h-138v680z" />
    <glyph glyph-name="J" unicode="J" horiz-adv-x="302" 
d="M19 50q41 0 58.5 15.5t17.5 55.5v559h137l1 -565q0 -73 -21 -112.5t-66.5 -56t-126.5 -16.5v120z" />
    <glyph glyph-name="K" unicode="K" horiz-adv-x="593" 
d="M304 272l-92 -9v-263h-138v680h138v-297l93 9l111 288h157l-148 -340l152 -340h-159z" />
    <glyph glyph-name="L" unicode="L" horiz-adv-x="472" 
d="M461 122v-122h-387v680h138v-558h249z" />
    <glyph glyph-name="M" unicode="M" horiz-adv-x="858" 
d="M784 680v-680h-138v526h-15l-133 -496h-138l-133 496h-15v-526h-138v680h235l120 -495l120 495h235z" />
    <glyph glyph-name="N" unicode="N" horiz-adv-x="693" 
d="M619 680v-680h-227l-170 560h-10v-560h-138v680h233l164 -560h10v560h138z" />
    <glyph glyph-name="O" unicode="O" horiz-adv-x="652" 
d="M161 25q-62 37 -89.5 113.5t-27.5 198.5q0 123 27.5 200.5t89.5 116t165 38.5t165 -38.5t89.5 -116t27.5 -200.5q0 -120 -26.5 -196t-88.5 -114.5t-167 -38.5q-103 0 -165 37zM410.5 130.5q30.5 22.5 43 72t12.5 134.5t-13 135.5t-43.5 75t-83.5 24.5t-83.5 -24.5
t-43.5 -75t-13 -135.5q0 -79 11 -128t41.5 -75t87.5 -26q54 0 84.5 22.5z" />
    <glyph glyph-name="P" unicode="P" horiz-adv-x="589" 
d="M74 680h250q242 0 242 -236q0 -120 -61.5 -183t-180.5 -63h-112v-198h-138v680zM323 316q103 0 103 128q0 62 -24.5 90t-78.5 28h-111v-246h111z" />
    <glyph glyph-name="Q" unicode="Q" horiz-adv-x="652" 
d="M370 -9q-10 -3 -44 -3q-104 0 -165.5 37t-89 113t-27.5 199t27.5 200.5t89.5 116t165 38.5t165 -38.5t89.5 -116.5t27.5 -201q0 -222 -105 -299l83 -134l-126 -59zM410.5 130.5q30.5 22.5 43 71.5t12.5 134t-13 136t-43.5 75.5t-83.5 24.5t-83.5 -24.5t-43.5 -75.5
t-13 -136q0 -79 11 -127.5t41.5 -74.5t87.5 -26q54 0 84.5 22.5z" />
    <glyph glyph-name="R" unicode="R" horiz-adv-x="620" 
d="M74 680h264q240 0 240 -224q0 -133 -100 -196l97 -260h-151l-79 228h-133v-228h-138v680zM340 346q47 0 72 29.5t25 79.5t-26 78.5t-73 28.5h-126v-216h128z" />
    <glyph glyph-name="S" unicode="S" horiz-adv-x="544" 
d="M81 12l-36 7l14 107q134 -18 205 -18q106 0 106 88q0 36 -28 53t-94 36q-79 22 -124.5 49t-66 64t-20.5 92q0 100 61 151t171 51q43 0 89 -5.5t135 -21.5l-11 -109q-137 16 -199 16q-109 0 -109 -72q0 -25 18 -41t45 -26.5t91 -30.5q69 -22 107 -46t55 -59.5t17 -91.5
q0 -105 -63.5 -161t-171.5 -56q-78 0 -191 24z" />
    <glyph glyph-name="T" unicode="T" horiz-adv-x="526" 
d="M195 558h-182v122h500v-122h-180v-558h-138v558z" />
    <glyph glyph-name="U" unicode="U" horiz-adv-x="654" 
d="M132 47q-64 59 -64 183v450h138v-453q0 -119 121 -119t121 119v453h138v-450q0 -124 -64 -183t-195 -59t-195 59z" />
    <glyph glyph-name="V" unicode="V" horiz-adv-x="603" 
d="M16 680h145l118 -560h45l118 560h145l-158 -680h-255z" />
    <glyph glyph-name="W" unicode="W" horiz-adv-x="930" 
d="M19 680h145l84 -562h15l122 562h160l122 -562h15l84 562h145l-130 -680h-209l-107 517l-107 -517h-209z" />
    <glyph glyph-name="X" unicode="X" horiz-adv-x="569" 
d="M205 326l-196 354h153l126 -250l129 250h143l-196 -347l196 -333h-153l-126 235l-129 -235h-143z" />
    <glyph glyph-name="Y" unicode="Y" horiz-adv-x="557" 
d="M210 275l-210 405h153l125 -271l125 271h153l-208 -405v-275h-138v275z" />
    <glyph glyph-name="Z" unicode="Z" horiz-adv-x="532" 
d="M41 119l284 423v18h-284v120h450v-120l-284 -422v-18h284v-120h-450v119z" />
    <glyph glyph-name="bracketleft" unicode="[" horiz-adv-x="355" 
d="M68 749h252v-120h-115v-632h115v-120h-252v872z" />
    <glyph glyph-name="backslash" unicode="\" horiz-adv-x="498" 
d="M32 664l114 52l320 -703l-116 -49z" />
    <glyph glyph-name="bracketright" unicode="]" horiz-adv-x="355" 
d="M35 -123v120h115v632h-115v120h252v-872h-252z" />
    <glyph glyph-name="asciicircum" unicode="^" 
d="M215 660h114l194 -347h-140l-109 217l-113 -217h-140z" />
    <glyph glyph-name="underscore" unicode="_" horiz-adv-x="620" 
d="M96 -73h428v-114h-428v114z" />
    <glyph glyph-name="grave" unicode="`" horiz-adv-x="268" 
d="M-17 638l40 115l252 -102l-30 -87z" />
    <glyph glyph-name="a" unicode="a" horiz-adv-x="511" 
d="M29 152q0 78 41.5 112.5t133.5 40.5l107 8v31q0 30 -13.5 42t-45.5 12q-33 0 -91 -2.5t-97 -5.5l-4 93q108 29 204 29t138.5 -40t42.5 -128v-208q2 -25 8.5 -34t24.5 -13l-4 -101q-52 0 -82.5 7t-60.5 28q-73 -35 -147 -35q-155 0 -155 164zM296 109l15 4v107l-91 -8
q-56 -5 -56 -60t49 -55q38 0 83 12z" />
    <glyph glyph-name="b" unicode="b" horiz-adv-x="544" 
d="M100 -2l-38 4v698h134v-215q38 15 62 21t56 6q99 0 145.5 -61t46.5 -200q0 -98 -23.5 -155t-75.5 -82.5t-139 -25.5q-71 0 -168 10zM346 139.5q24 31.5 24 110.5q0 77 -21.5 109.5t-68.5 32.5q-33 0 -84 -13v-267q41 -4 64 -4q62 0 86 31.5z" />
    <glyph glyph-name="c" unicode="c" horiz-adv-x="446" 
d="M86.5 50.5q-48.5 62.5 -48.5 199.5q0 139 50 200.5t163 61.5q29 0 64 -5t94 -17l-4 -106q-85 8 -118 8q-46 0 -70 -12.5t-33.5 -42.5t-9.5 -86q0 -57 9.5 -87t34 -43t71.5 -13l116 8l4 -107q-106 -21 -166 -21q-108 0 -156.5 62.5z" />
    <glyph glyph-name="d" unicode="d" horiz-adv-x="549" 
d="M82 51.5q-44 63.5 -44 191.5q0 140 49.5 204.5t152.5 64.5q37 0 113 -14v202h134v-700h-133v21q-41 -19 -70 -26t-58 -7q-100 0 -144 63.5zM339 120l14 3v263q-53 10 -89 10q-48 0 -69 -34t-21 -116q0 -75 19 -106.5t64 -31.5q36 0 82 12z" />
    <glyph glyph-name="e" unicode="e" horiz-adv-x="510" 
d="M89 47q-52 59 -52 191q0 138 54.5 206t169.5 68q106 0 160.5 -56.5t54.5 -169.5l-10 -93h-294q2 -35 12.5 -53.5t34 -26t65.5 -7.5q33 0 79 2t67 4l28 3l2 -99q-113 -28 -202 -28q-117 0 -169 59zM344 295q0 60 -18.5 83.5t-65.5 23.5q-48 0 -68 -24.5t-21 -82.5h173z
" />
    <glyph glyph-name="f" unicode="f" horiz-adv-x="357" 
d="M86 386h-54v114h54v22q0 73 14 114t45 58.5t87 17.5l114 -9l-2 -113l-83 4q-21 0 -31 -21.5t-10 -51.5v-21h121v-114h-121v-386h-134v386z" />
    <glyph glyph-name="g" unicode="g" horiz-adv-x="534" 
d="M96.5 -198.5q-59.5 31.5 -59.5 102.5q0 37 17.5 65.5t54.5 58.5q-18 12 -27.5 31t-9.5 40q0 15 7.5 31t31.5 54q-68 50 -68 146q0 91 55.5 135.5t154.5 44.5q42 0 101 -13l161 5v-107l-75 6q13 -21 17.5 -36t4.5 -41q0 -90 -51 -128.5t-155 -38.5q-30 0 -46 4
q-10 -24 -10 -41q0 -21 20.5 -25.5t76.5 -5.5q77 -2 122.5 -12t70.5 -40.5t25 -89.5q0 -91 -62 -134t-190 -43q-107 0 -166.5 31.5zM330 333q0 73 -76 73q-77 0 -77 -73q0 -74 77 -74q76 0 76 74zM354.5 -107q25.5 13 25.5 40q0 25 -18.5 31.5t-43 7.5t-32.5 1l-90 7
q-27 -27 -27 -54q0 -24 25.5 -35t77.5 -11q57 0 82.5 13z" />
    <glyph glyph-name="h" unicode="h" horiz-adv-x="553" 
d="M62 700h134v-224q38 19 67.5 27.5t63.5 8.5q92 0 130.5 -58.5t38.5 -182.5v-271h-134v268q0 68 -16 96t-62 28q-36 0 -75 -12l-13 -4v-376h-134v700z" />
    <glyph glyph-name="i" unicode="i" horiz-adv-x="258" 
d="M62 0zM62 500h134v-500h-134v500zM62 699h134v-135h-134v135z" />
    <glyph glyph-name="j" unicode="j" horiz-adv-x="259" 
d="M0 0zM-34 -131q45 30 64.5 50t26 42t6.5 63v476h134v-477q0 -70 -15 -111.5t-51.5 -72.5t-111.5 -69zM63 699h134v-135h-134v135z" />
    <glyph glyph-name="k" unicode="k" horiz-adv-x="515" 
d="M62 700h134v-398l51 9l99 189h150l-130 -237l137 -263h-151l-101 195l-55 -9v-186h-134v700z" />
    <glyph glyph-name="l" unicode="l" horiz-adv-x="270" 
d="M68 700h134v-700h-134v700z" />
    <glyph glyph-name="m" unicode="m" horiz-adv-x="839" 
d="M62 500h133v-28q37 21 64.5 30.5t57.5 9.5q35 0 67.5 -11.5t53.5 -35.5q47 24 88.5 35.5t84.5 11.5q93 0 132 -57t39 -184v-271h-134v267q0 67 -15 96t-56 29q-29 0 -77 -14l-15 -5q4 -67 4 -114v-259h-134v257q0 54 -5.5 82t-21 40.5t-46.5 12.5q-32 0 -74 -14l-12 -4
v-374h-134v500z" />
    <glyph glyph-name="n" unicode="n" horiz-adv-x="553" 
d="M62 500h133v-28q38 22 67.5 31t63.5 9q92 0 131 -59t39 -182v-271h-134v267q0 69 -16.5 97t-62.5 28q-33 0 -75 -14l-12 -4v-374h-134v500z" />
    <glyph glyph-name="o" unicode="o" horiz-adv-x="532" 
d="M94.5 56.5q-58.5 68.5 -58.5 194.5q0 125 58.5 193t171.5 68t171.5 -68t58.5 -193q0 -126 -58.5 -194.5t-171.5 -68.5t-171.5 68.5zM337 137q23 35 23 114t-23 113t-71 34t-71 -34t-23 -113t23 -114t71 -35t71 35z" />
    <glyph glyph-name="p" unicode="p" horiz-adv-x="544" 
d="M62 500h133v-27q39 23 65.5 31t56.5 8q96 0 142.5 -63.5t46.5 -202.5q0 -96 -23 -152t-72 -81t-130 -25q-40 0 -85 8v-206h-134v710zM347 136.5q23 32.5 23 109.5q0 76 -21 111t-69 35q-35 0 -72 -15l-12 -5v-262q45 -6 72 -6q56 0 79 32.5z" />
    <glyph glyph-name="q" unicode="q" horiz-adv-x="543" 
d="M347 15q-38 -15 -62.5 -21t-55.5 -6q-99 0 -145 61t-46 203q0 100 24 156t77 80t147 24l195 -13v-709h-134v225zM334 118l13 3v271q-33 4 -60 4q-65 0 -90 -33t-25 -112q0 -77 21.5 -110t69.5 -33q35 0 71 10z" />
    <glyph glyph-name="r" unicode="r" horiz-adv-x="372" 
d="M62 500h133v-53q86 50 160 65v-135q-75 -15 -139 -35l-20 -7v-335h-134v500z" />
    <glyph glyph-name="s" unicode="s" horiz-adv-x="472" 
d="M76 6l-32 6l4 112q121 -16 176 -16q37 0 58.5 8t21.5 30q0 20 -20.5 29t-68.5 17q-18 2 -25 4q-50 9 -82 22.5t-52 43t-20 82.5q0 85 52 126t143 41q54 0 159 -19l33 -6l-2 -111q-121 16 -179 16q-34 0 -53.5 -7t-19.5 -27q0 -21 20 -29.5t65 -16.5l35 -6
q80 -16 114 -47.5t34 -101.5q0 -86 -49 -127t-151 -41q-66 0 -161 18z" />
    <glyph glyph-name="t" unicode="t" horiz-adv-x="364" 
d="M142 6q-32 18 -46 59t-14 113v208h-59v114h59v139h134v-139h123v-114h-123v-205q0 -39 7 -56.5t35 -16.5l76 2l6 -107q-40 -9 -62.5 -12t-45.5 -3q-58 0 -90 18z" />
    <glyph glyph-name="u" unicode="u" horiz-adv-x="553" 
d="M123.5 14q-36.5 26 -51.5 80t-15 144v262h134v-264q0 -54 5 -80.5t20.5 -37t47.5 -10.5q23 0 41.5 4t51.5 14v374h134v-500h-133v28q-42 -23 -71.5 -31.5t-62.5 -8.5q-64 0 -100.5 26z" />
    <glyph glyph-name="v" unicode="v" horiz-adv-x="498" 
d="M15 500h140l80 -386h28l84 386h136l-120 -500h-228z" />
    <glyph glyph-name="w" unicode="w" horiz-adv-x="772" 
d="M24 500h132l61 -386h24l76 376h138l76 -376h24l61 386h132l-95 -500h-210l-57 306l-57 -306h-210z" />
    <glyph glyph-name="x" unicode="x" horiz-adv-x="474" 
d="M151 251l-137 249h143l80 -155l81 155h143l-142 -245l142 -255h-143l-81 153l-80 -153h-143z" />
    <glyph glyph-name="y" unicode="y" horiz-adv-x="500" 
d="M233 0h-94l-123 500h132l91 -386h23l91 386h132l-176 -710h-131z" />
    <glyph glyph-name="z" unicode="z" horiz-adv-x="454" 
d="M41 120l210 260h-210v120h371v-120l-210 -260h210v-120h-371v120z" />
    <glyph glyph-name="braceleft" unicode="{" horiz-adv-x="361" 
d="M204.5 -113.5q-43.5 17.5 -63.5 54t-20 97.5l7 121q0 74 -112 102v104q112 25 112 94l-7 127q0 64 19.5 101t63.5 54t121 20v-114q-42 -4 -58 -20.5t-16 -50.5l7 -128q0 -44 -8.5 -68.5t-32 -39t-71.5 -26.5q47 -12 71 -28.5t33 -42.5t9 -71l-7 -117q0 -36 15.5 -54
t55.5 -21v-114q-75 3 -118.5 20.5z" />
    <glyph glyph-name="bar" unicode="|" horiz-adv-x="268" 
d="M67 700h134v-910h-134v910z" />
    <glyph glyph-name="braceright" unicode="}" horiz-adv-x="361" 
d="M38 -20q40 3 55.5 21t15.5 54l-7 117q0 45 9 71t33 42.5t71 28.5q-48 12 -71.5 26.5t-32 39t-8.5 68.5l7 128q0 34 -16 50.5t-58 20.5v114q77 -3 121 -20t63.5 -54t19.5 -101l-7 -127q0 -69 112 -94v-104q-112 -28 -112 -102l7 -121q0 -61 -20 -97.5t-63.5 -54
t-118.5 -20.5v114z" />
    <glyph glyph-name="asciitilde" unicode="~" 
d="M276 192q-78 22 -98 22q-18 0 -45.5 -9.5t-44.5 -20.5l-17 -9l-10 107q62 52 123 52q29 0 104 -22t96 -22q38 0 88 28l17 10l8 -107q-20 -20 -53.5 -35.5t-60.5 -15.5q-29 0 -107 22z" />
    <glyph glyph-name="uni00A0" unicode="&#xa0;" horiz-adv-x="220" 
 />
    <glyph glyph-name="exclamdown" unicode="&#xa1;" horiz-adv-x="264" 
d="M203 500v-161h-144v161h144zM190 250l14 -430h-145l13 430h118z" />
    <glyph glyph-name="cent" unicode="&#xa2;" 
d="M270 29q-182 14 -182 220t182 221v101h110v-105l79 -13l-4 -100q-79 3 -129 3q-52 0 -77 -25t-25 -81q0 -57 26 -82t89 -25l116 4l4 -100q-37 -10 -79 -13v-109h-110v104z" />
    <glyph glyph-name="sterling" unicode="&#xa3;" 
d="M75 114h74v205h-64v114h64v59q0 69 17.5 108t53 55t95.5 16q67 0 131 -18l22 -6l-4 -104q-72 8 -131 8q-52 0 -52 -65v-53h153v-114h-153v-205h124l69 16l21 -112l-81 -18h-339v114z" />
    <glyph glyph-name="currency" unicode="&#xa4;" 
d="M30 94l72 72q-19 39 -19 86q0 46 19 85l-72 73l92 92l72 -73q42 20 86 20q43 0 85 -20l73 73l92 -92l-73 -73q20 -42 20 -85q0 -44 -20 -86l73 -72l-92 -92l-73 73q-42 -20 -85 -20t-85 20l-73 -73zM340.5 191.5q25.5 25.5 25.5 60.5t-25.5 60.5t-60.5 25.5t-60.5 -25.5
t-25.5 -60.5q0 -34 26 -60t60 -26q35 0 60.5 25.5z" />
    <glyph glyph-name="yen" unicode="&#xa5;" 
d="M213 134h-155v112h155v45h-155v112h92l-145 257h153l123 -211l122 211h153l-143 -257h89v-112h-151v-45h151v-112h-151v-134h-138v134z" />
    <glyph glyph-name="brokenbar" unicode="&#xa6;" horiz-adv-x="272" 
d="M69 700h134v-372h-134v372zM69 170h134v-380h-134v380z" />
    <glyph glyph-name="section" unicode="&#xa7;" horiz-adv-x="517" 
d="M91 -172l-31 5l13 108q108 -15 162 -15q53 0 76.5 13.5t23.5 42.5q0 28 -25 40q-28 13 -115 35q-63 16 -96 33.5t-47.5 46t-14.5 76.5q0 34 19.5 73.5t44.5 60.5q-44 32 -44 108q0 183 217 183q64 0 148 -18l28 -6l-6 -108q-109 16 -166 16q-53 0 -72 -14t-19 -51
q0 -21 28 -33t90 -28q9 -1 22 -5q60 -15 91 -31.5t44 -43t13 -73.5q0 -70 -50 -141q21 -20 29.5 -42.5t8.5 -66.5q0 -97 -51.5 -140t-165.5 -43q-56 0 -155 18zM339 222q0 24 -15 37t-45 21l-44 11l-46 11q-17 -26 -17 -59q0 -23 4.5 -34.5t17 -18t41.5 -14.5q41 -11 86 -27
q18 23 18 73z" />
    <glyph glyph-name="dieresis" unicode="&#xa8;" horiz-adv-x="268" 
d="M-30 728h128v-132h-128v132zM186 728h128v-132h-128v132z" />
    <glyph glyph-name="copyright" unicode="&#xa9;" horiz-adv-x="643" 
d="M181.5 187.5q-63.5 37.5 -99.5 103t-36 145.5t35.5 144.5t99 101t143.5 36.5q79 0 141.5 -37.5t97 -103t34.5 -145.5t-34.5 -144.5t-97 -101t-141.5 -36.5t-142.5 37.5zM430.5 239.5q48.5 29.5 76.5 81t28 112.5t-28 112.5t-77 82t-108 30.5q-90 0 -152 -65
q-62 -67 -62 -159q0 -61 28 -112.5t77 -81.5t109 -30t108.5 29.5zM230.5 306q-28.5 37 -28.5 129q0 62 13 97.5t41.5 50.5t77.5 15q39 0 70 -12l10 -3l-7 -86q-35 6 -61 6q-25 0 -33 -13.5t-8 -50.5q0 -75 35 -75l67 5l7 -82q-28 -18 -90 -18q-65 0 -93.5 37z" />
    <glyph glyph-name="ordfeminine" unicode="&#xaa;" horiz-adv-x="416" 
d="M282.5 319.5q-29.5 6.5 -42.5 26.5q-43 -32 -92 -32q-50 0 -78 29.5t-28 80.5q0 95 127 101l67 3v22q0 15 -44 15l-131 -7l-3 75q72 26 144 26q77 0 113 -25.5t36 -89.5v-141q8 -7 18 -8l-2 -82q-55 0 -84.5 6.5zM205 404.5q8 2.5 16 6.5t15 7v40l-47 -3q-32 -3 -32 -27
q0 -26 31 -26q9 0 17 2.5z" />
    <glyph glyph-name="guillemotleft" unicode="&#xab;" horiz-adv-x="601" 
d="M40 194v96l223 164v-135l-109 -75l109 -86v-135zM323 194v96l223 164v-135l-109 -75l109 -86v-135z" />
    <glyph glyph-name="logicalnot" unicode="&#xac;" 
d="M373 238h-316v120h436v-254h-120v134z" />
    <glyph glyph-name="registered" unicode="&#xae;" horiz-adv-x="643" 
d="M181.5 187q-63.5 37 -99.5 102t-36 146t35.5 145.5t99 101t142.5 36.5t141.5 -37.5t97.5 -103t35 -145.5t-34.5 -144.5t-96 -101t-141.5 -36.5t-143.5 37zM430.5 240q48.5 30 76.5 81.5t28 112.5t-28 112.5t-77 81.5t-108 30q-61 0 -110 -31t-76.5 -82.5t-27.5 -110.5
q0 -61 28.5 -112.5t78 -81.5t108.5 -30t107.5 30zM201 591h136q52 0 83 -25.5t31 -71.5t-8 -68t-30 -40l41 -110h-100l-28 93h-29v-93h-96v315zM324 440q34 0 34 40q0 39 -35 39h-27v-79h28z" />
    <glyph glyph-name="macron" unicode="&#xaf;" horiz-adv-x="268" 
d="M-5 697h287v-100h-287v100z" />
    <glyph glyph-name="degree" unicode="&#xb0;" 
d="M171.5 434q-41.5 41 -41.5 108t41.5 108.5t108.5 41.5t108.5 -41.5t41.5 -108.5t-41.5 -108t-108.5 -41t-108.5 41zM335.5 487q21.5 21 21.5 55t-21.5 55.5t-55.5 21.5q-35 0 -55 -22t-20 -55q0 -34 20.5 -55t54.5 -21t55.5 21z" />
    <glyph glyph-name="plusminus" unicode="&#xb1;" 
d="M219 270h-169v120h169v108h120v-108h171v-120h-171v-100h-120v100zM50 139h460v-120h-460v120z" />
    <glyph glyph-name="uni00B2" unicode="&#xb2;" horiz-adv-x="280" 
d="M21 568l73 59q46 37 46 57q0 15 -37 15l-76 -6l-4 99q74 9 126 9q103 0 103 -89q0 -42 -12.5 -65t-43.5 -46l-38 -28h94v-95h-231v90z" />
    <glyph glyph-name="uni00B3" unicode="&#xb3;" horiz-adv-x="280" 
d="M20 475l6 93q61 -6 92 -6t31 16q0 14 -26 14h-66v85h64q20 0 20 15q0 14 -27 14l-84 -5l-6 91q68 9 108 9q121 0 121 -89q0 -53 -29 -70q35 -15 35 -70q0 -105 -118 -105z" />
    <glyph glyph-name="acute" unicode="&#xb4;" horiz-adv-x="268" 
d="M5 651l252 102l40 -115l-262 -74z" />
    <glyph glyph-name="uni00B5" unicode="&#xb5;" 
d="M63 500h134v-289q1 -41 6.5 -62.5t20 -31t43.5 -9.5q43 0 83 14l13 4v374h134v-500h-133v28q-71 -40 -125 -40q-23 0 -42 3v-201h-134v710z" />
    <glyph glyph-name="paragraph" unicode="&#xb6;" horiz-adv-x="599" 
d="M221 286h-7q-84 0 -135 54.5t-51 141.5q0 57 23.5 102.5t66.5 70.5t98 25h331v-114h-36v-566h-114v566h-62v-566h-114v286z" />
    <glyph glyph-name="periodcentered" unicode="&#xb7;" horiz-adv-x="256" 
d="M56 333h144v-166h-144v166z" />
    <glyph glyph-name="cedilla" unicode="&#xb8;" horiz-adv-x="264" 
d="M44 -233l-14 3l4 78q21 -1 48 -1q38 0 38 26q0 22 -38 22h-24v106h53v-38q67 -1 95 -20t28 -72q0 -55 -28.5 -83.5t-82.5 -28.5q-42 0 -79 8z" />
    <glyph glyph-name="uni00B9" unicode="&#xb9;" horiz-adv-x="280" 
d="M106 673l-47 -32l-49 74l106 75h96v-312h-106v195z" />
    <glyph glyph-name="ordmasculine" unicode="&#xba;" horiz-adv-x="420" 
d="M40 487q0 172 171 172q169 0 169 -172q0 -173 -169 -173q-171 0 -171 173zM249 434.5q10 15.5 10 53.5t-10 52.5t-38 14.5q-29 0 -40 -15t-11 -52t11.5 -53t39.5 -16t38 15.5z" />
    <glyph glyph-name="guillemotright" unicode="&#xbb;" horiz-adv-x="603" 
d="M55 158l109 86l-109 75v135l223 -164v-96l-223 -171v135zM338 158l109 86l-109 75v135l223 -164v-96l-223 -171v135z" />
    <glyph glyph-name="onequarter" unicode="&#xbc;" horiz-adv-x="570" 
d="M126 790h96v-312h-92l-301 -485l-53 36l340 547v97l-47 -32l-49 74zM552 30v-95h-11v-35h-105v35h-132v88l39 189h118l-52 -182h27l14 90h91v-90h11z" />
    <glyph glyph-name="onehalf" unicode="&#xbd;" horiz-adv-x="570" 
d="M126 790h96v-312h-92l-301 -485l-53 36l340 547v97l-47 -32l-49 74zM448 -5h94v-95h-231v90l73 59q46 37 46 57q0 15 -37 15l-76 -6l-4 99q73 9 126 9q103 0 103 -89q0 -42 -12.5 -65t-43.5 -46z" />
    <glyph glyph-name="threequarters" unicode="&#xbe;" horiz-adv-x="570" 
d="M0 0zM-224 29l393 632l53 -35l-393 -633zM156 -65h-132v88l39 189h118l-52 -182h27l14 90h91v-90h11v-95h-11v-35h-105v35zM310 475l6 93q61 -6 92 -6t31 16q0 14 -26 14h-66v85h64q20 0 20 15q0 14 -27 14l-84 -5l-6 91q68 9 108 9q121 0 121 -89q0 -53 -29 -70
q35 -15 35 -70q0 -105 -118 -105z" />
    <glyph glyph-name="questiondown" unicode="&#xbf;" horiz-adv-x="433" 
d="M315 339h-144v161h144v-161zM324 192q0 -36 -64 -87q-39 -31 -55.5 -46t-26.5 -32.5t-10 -39.5q0 -59 85 -59q59 0 144 16l7 -101q-87 -35 -182 -35q-193 0 -193 156q0 54 6.5 84.5t23 53t51.5 48.5q42 31 59 52.5t17 49.5v31h107q31 -34 31 -91z" />
    <glyph glyph-name="Agrave" unicode="&#xc0;" horiz-adv-x="602" 
d="M17 0zM142 825l41 120l252 -106l-33 -93zM420 123h-238l-27 -123h-138l153 680h262l153 -680h-138zM325 566h-48l-69 -323h186z" />
    <glyph glyph-name="Aacute" unicode="&#xc1;" horiz-adv-x="602" 
d="M17 0zM420 123h-238l-27 -123h-138l153 680h262l153 -680h-138zM325 566h-48l-69 -323h186zM162 839l252 106l41 -120l-260 -79z" />
    <glyph glyph-name="Acircumflex" unicode="&#xc2;" horiz-adv-x="602" 
d="M17 0zM420 123h-238l-27 -123h-138l153 680h262l153 -680h-138zM325 566h-48l-69 -323h186zM241 914h117l134 -149h-142l-49 56l-52 -56h-142z" />
    <glyph glyph-name="Atilde" unicode="&#xc3;" horiz-adv-x="602" 
d="M17 0zM420 123h-238l-27 -123h-138l153 680h262l153 -680h-138zM325 566h-48l-69 -323h186zM288 781q-66 23 -77 23q-24 0 -67 -32l-14 -10l-29 96q22 26 53.5 45t59.5 19q27 0 90 -23t72 -23q23 0 67 32l14 10l29 -97q-17 -19 -49 -41t-60 -22q-25 0 -89 23z" />
    <glyph glyph-name="Adieresis" unicode="&#xc4;" horiz-adv-x="602" 
d="M17 0zM420 123h-238l-27 -123h-138l153 680h262l153 -680h-138zM325 566h-48l-69 -323h186zM129 896h128v-132h-128v132zM345 896h128v-132h-128v132z" />
    <glyph glyph-name="Aring" unicode="&#xc5;" horiz-adv-x="602" 
d="M420 123h-238l-27 -123h-138l149 661q-15 26 -15 60q0 59 42.5 92.5t107.5 33.5t107.5 -33.5t42.5 -92.5q0 -34 -15 -60l149 -661h-138zM258.5 751.5q-16.5 -10.5 -16.5 -30.5q0 -19 16.5 -30t42.5 -11t42.5 11t16.5 30q0 20 -16.5 30.5t-42.5 10.5t-42.5 -10.5zM208 243
h186l-69 323h-48z" />
    <glyph glyph-name="AE" unicode="&#xc6;" horiz-adv-x="871" 
d="M196 690h634v-132h-302v-143h242v-131h-242v-152h302v-132h-438v116h-213l-29 -116h-138zM392 249l1 309h-100l-80 -309h179z" />
    <glyph glyph-name="Ccedilla" unicode="&#xc7;" horiz-adv-x="543" 
d="M315 -12v-25q67 -1 95 -20t28 -72q0 -55 -28.5 -83.5t-82.5 -28.5q-42 0 -79 8l-14 3l4 78q21 -1 48 -1q38 0 38 26q0 22 -38 22h-24v95q-86 9 -132.5 50t-64.5 112.5t-18 184.5q0 136 23.5 212t78.5 109.5t154 33.5q91 0 203 -27l-4 -110q-99 15 -161 15q-63 0 -95 -20
t-44.5 -65.5t-12.5 -128.5v-37q2 -86 12.5 -128.5t41.5 -61.5t95 -19q68 0 164 14l3 -113q-109 -23 -190 -23z" />
    <glyph glyph-name="Egrave" unicode="&#xc8;" horiz-adv-x="554" 
d="M74 0zM212 560v-159h242v-118h-242v-163h302v-120h-440v680h440v-120h-302zM139 825l41 120l252 -106l-33 -93z" />
    <glyph glyph-name="Eacute" unicode="&#xc9;" horiz-adv-x="554" 
d="M74 0zM212 560v-159h242v-118h-242v-163h302v-120h-440v680h440v-120h-302zM154 839l252 106l41 -120l-260 -79z" />
    <glyph glyph-name="Ecircumflex" unicode="&#xca;" horiz-adv-x="554" 
d="M74 0zM212 560v-159h242v-118h-242v-163h302v-120h-440v680h440v-120h-302zM239 914h117l134 -149h-142l-49 56l-52 -56h-142z" />
    <glyph glyph-name="Edieresis" unicode="&#xcb;" horiz-adv-x="554" 
d="M74 0zM212 560v-159h242v-118h-242v-163h302v-120h-440v680h440v-120h-302zM123 896h128v-132h-128v132zM339 896h128v-132h-128v132z" />
    <glyph glyph-name="Igrave" unicode="&#xcc;" horiz-adv-x="286" 
d="M0 0zM74 680h138v-680h-138v680zM-24 825l41 120l252 -106l-33 -93z" />
    <glyph glyph-name="Iacute" unicode="&#xcd;" horiz-adv-x="286" 
d="M7 0zM74 680h138v-680h-138v680zM7 839l252 106l41 -120l-260 -79z" />
    <glyph glyph-name="Icircumflex" unicode="&#xce;" horiz-adv-x="286" 
d="M0 0zM74 680h138v-680h-138v680zM84 914h117l134 -149h-142l-49 56l-52 -56h-142z" />
    <glyph glyph-name="Idieresis" unicode="&#xcf;" horiz-adv-x="286" 
d="M0 0zM74 680h138v-680h-138v680zM-28 896h128v-132h-128v132zM188 896h128v-132h-128v132z" />
    <glyph glyph-name="Eth" unicode="&#xd0;" horiz-adv-x="642" 
d="M79 277h-54v132h54v281h227q116 0 178 -33.5t86.5 -104.5t24.5 -196q0 -130 -24 -206t-86.5 -113t-178.5 -37h-227v277zM306 131q54 0 85 16.5t46.5 64.5t15.5 142q0 80 -8.5 120.5t-39.5 62.5t-99 22h-91v-150h130v-132h-130v-146h91z" />
    <glyph glyph-name="Ntilde" unicode="&#xd1;" horiz-adv-x="693" 
d="M74 0zM619 680v-680h-227l-170 560h-10v-560h-138v680h233l164 -560h10v560h138zM336 781q-66 23 -77 23q-24 0 -67 -32l-14 -10l-29 96q22 26 53.5 45t59.5 19q27 0 90 -23t72 -23q23 0 67 32l14 10l29 -97q-17 -19 -49 -41t-60 -22q-25 0 -89 23z" />
    <glyph glyph-name="Ograve" unicode="&#xd2;" horiz-adv-x="652" 
d="M44 0zM161 25q-62 37 -89.5 113.5t-27.5 198.5q0 123 27.5 200.5t89.5 116t165 38.5t165 -38.5t89.5 -116t27.5 -200.5q0 -120 -26.5 -196t-88.5 -114.5t-167 -38.5q-103 0 -165 37zM410.5 130.5q30.5 22.5 43 72t12.5 134.5t-13 135.5t-43.5 75t-83.5 24.5t-83.5 -24.5
t-43.5 -75t-13 -135.5q0 -79 11 -128t41.5 -75t87.5 -26q54 0 84.5 22.5zM163 825l41 120l252 -106l-33 -93z" />
    <glyph glyph-name="Oacute" unicode="&#xd3;" horiz-adv-x="652" 
d="M44 0zM161 25q-62 37 -89.5 113.5t-27.5 198.5q0 123 27.5 200.5t89.5 116t165 38.5t165 -38.5t89.5 -116t27.5 -200.5q0 -120 -26.5 -196t-88.5 -114.5t-167 -38.5q-103 0 -165 37zM410.5 130.5q30.5 22.5 43 72t12.5 134.5t-13 135.5t-43.5 75t-83.5 24.5t-83.5 -24.5
t-43.5 -75t-13 -135.5q0 -79 11 -128t41.5 -75t87.5 -26q54 0 84.5 22.5zM167 839l252 106l41 -120l-260 -79z" />
    <glyph glyph-name="Ocircumflex" unicode="&#xd4;" horiz-adv-x="652" 
d="M44 0zM161 25q-62 37 -89.5 113.5t-27.5 198.5q0 123 27.5 200.5t89.5 116t165 38.5t165 -38.5t89.5 -116t27.5 -200.5q0 -120 -26.5 -196t-88.5 -114.5t-167 -38.5q-103 0 -165 37zM410.5 130.5q30.5 22.5 43 72t12.5 134.5t-13 135.5t-43.5 75t-83.5 24.5t-83.5 -24.5
t-43.5 -75t-13 -135.5q0 -79 11 -128t41.5 -75t87.5 -26q54 0 84.5 22.5zM269 914h117l134 -149h-142l-49 56l-52 -56h-142z" />
    <glyph glyph-name="Otilde" unicode="&#xd5;" horiz-adv-x="652" 
d="M44 0zM161 25q-62 37 -89.5 113.5t-27.5 198.5q0 123 27.5 200.5t89.5 116t165 38.5t165 -38.5t89.5 -116t27.5 -200.5q0 -120 -26.5 -196t-88.5 -114.5t-167 -38.5q-103 0 -165 37zM410.5 130.5q30.5 22.5 43 72t12.5 134.5t-13 135.5t-43.5 75t-83.5 24.5t-83.5 -24.5
t-43.5 -75t-13 -135.5q0 -79 11 -128t41.5 -75t87.5 -26q54 0 84.5 22.5zM320 781q-66 23 -77 23q-24 0 -67 -32l-14 -10l-29 96q22 26 53.5 45t59.5 19q27 0 90 -23t72 -23q23 0 67 32l14 10l29 -97q-17 -19 -49 -41t-60 -22q-25 0 -89 23z" />
    <glyph glyph-name="Odieresis" unicode="&#xd6;" horiz-adv-x="652" 
d="M44 0zM161 25q-62 37 -89.5 113.5t-27.5 198.5q0 123 27.5 200.5t89.5 116t165 38.5t165 -38.5t89.5 -116t27.5 -200.5q0 -120 -26.5 -196t-88.5 -114.5t-167 -38.5q-103 0 -165 37zM410.5 130.5q30.5 22.5 43 72t12.5 134.5t-13 135.5t-43.5 75t-83.5 24.5t-83.5 -24.5
t-43.5 -75t-13 -135.5q0 -79 11 -128t41.5 -75t87.5 -26q54 0 84.5 22.5zM155 896h128v-132h-128v132zM371 896h128v-132h-128v132z" />
    <glyph glyph-name="multiply" unicode="&#xd7;" horiz-adv-x="559" 
d="M365 252l138 -139l-85 -85l-138 139l-139 -139l-85 85l139 139l-139 138l85 85l139 -138l138 138l85 -85z" />
    <glyph glyph-name="Oslash" unicode="&#xd8;" horiz-adv-x="652" 
d="M74 -78l58 124q-88 78 -88 290q0 123 27.5 201t89.5 116.5t165 38.5q57 0 101 -12l61 130l100 -43l-65 -140q85 -82 85 -291q0 -122 -27.5 -198t-89.5 -113t-165 -37q-52 0 -96 10l-58 -125zM374 565q-22 7 -48 7q-77 0 -108.5 -53.5t-31.5 -166.5q0 -108 15 -158z
M435 158.5q31 50.5 31 160.5q0 105 -14 156l-169 -363q15 -4 43 -4q78 0 109 50.5z" />
    <glyph glyph-name="Ugrave" unicode="&#xd9;" horiz-adv-x="654" 
d="M68 0zM132 47q-64 59 -64 183v450h138v-453q0 -119 121 -119t121 119v453h138v-450q0 -124 -64 -183t-195 -59t-195 59zM175 825l41 120l252 -106l-33 -93z" />
    <glyph glyph-name="Uacute" unicode="&#xda;" horiz-adv-x="654" 
d="M68 0zM132 47q-64 59 -64 183v450h138v-453q0 -119 121 -119t121 119v453h138v-450q0 -124 -64 -183t-195 -59t-195 59zM175 839l252 106l41 -120l-260 -79z" />
    <glyph glyph-name="Ucircumflex" unicode="&#xdb;" horiz-adv-x="654" 
d="M68 0zM132 47q-64 59 -64 183v450h138v-453q0 -119 121 -119t121 119v453h138v-450q0 -124 -64 -183t-195 -59t-195 59zM269 914h117l134 -149h-142l-49 56l-52 -56h-142z" />
    <glyph glyph-name="Udieresis" unicode="&#xdc;" horiz-adv-x="654" 
d="M68 0zM132 47q-64 59 -64 183v450h138v-453q0 -119 121 -119t121 119v453h138v-450q0 -124 -64 -183t-195 -59t-195 59zM156 896h128v-132h-128v132zM372 896h128v-132h-128v132z" />
    <glyph glyph-name="Yacute" unicode="&#xdd;" horiz-adv-x="557" 
d="M0 0zM210 275l-210 405h153l125 -271l125 271h153l-208 -405v-275h-138v275zM133 839l252 106l41 -120l-260 -79z" />
    <glyph glyph-name="Thorn" unicode="&#xde;" horiz-adv-x="596" 
d="M74 690h138v-98h112q244 0 244 -239q0 -122 -63 -188t-181 -66h-112v-99h-138v690zM323 233q51 0 78 31.5t27 88.5q0 107 -105 107h-111v-227h111z" />
    <glyph glyph-name="germandbls" unicode="&#xdf;" horiz-adv-x="611" 
d="M256 6l-24 5l4 107q98 -12 134 -12q80 0 80 38q0 23 -16.5 36t-60.5 31l-19 8q-66 28 -94 61.5t-28 84.5t18 79t62 46q43 18 58 28.5t15 32.5q0 25 -24 34t-69 9q-53 0 -74.5 -17.5t-21.5 -57.5v-519h-134v522q0 102 53.5 146t173.5 44q121 0 177.5 -37t56.5 -120
q0 -51 -19.5 -76.5t-67.5 -46.5q-38 -17 -52 -26.5t-14 -25.5q0 -17 21.5 -30t77.5 -38q46 -22 71 -41t36.5 -44t11.5 -63q0 -68 -19.5 -106t-63 -54t-119.5 -16q-53 0 -130 18z" />
    <glyph glyph-name="agrave" unicode="&#xe0;" horiz-adv-x="511" 
d="M29 0zM29 152q0 78 41.5 112.5t133.5 40.5l107 8v31q0 30 -13.5 42t-45.5 12q-33 0 -91 -2.5t-97 -5.5l-4 93q108 29 204 29t138.5 -40t42.5 -128v-208q2 -25 8.5 -34t24.5 -13l-4 -101q-52 0 -82.5 7t-60.5 28q-73 -35 -147 -35q-155 0 -155 164zM296 109l15 4v107
l-91 -8q-56 -5 -56 -60t49 -55q38 0 83 12zM103 638l40 115l252 -102l-30 -87z" />
    <glyph glyph-name="aacute" unicode="&#xe1;" horiz-adv-x="511" 
d="M29 0zM29 152q0 78 41.5 112.5t133.5 40.5l107 8v31q0 30 -13.5 42t-45.5 12q-33 0 -91 -2.5t-97 -5.5l-4 93q108 29 204 29t138.5 -40t42.5 -128v-208q2 -25 8.5 -34t24.5 -13l-4 -101q-52 0 -82.5 7t-60.5 28q-73 -35 -147 -35q-155 0 -155 164zM296 109l15 4v107
l-91 -8q-56 -5 -56 -60t49 -55q38 0 83 12zM96 651l252 102l40 -115l-262 -74z" />
    <glyph glyph-name="acircumflex" unicode="&#xe2;" horiz-adv-x="511" 
d="M29 0zM29 152q0 78 41.5 112.5t133.5 40.5l107 8v31q0 30 -13.5 42t-45.5 12q-33 0 -91 -2.5t-97 -5.5l-4 93q108 29 204 29t138.5 -40t42.5 -128v-208q2 -25 8.5 -34t24.5 -13l-4 -101q-52 0 -82.5 7t-60.5 28q-73 -35 -147 -35q-155 0 -155 164zM296 109l15 4v107
l-91 -8q-56 -5 -56 -60t49 -55q38 0 83 12zM209 731h84l128 -151h-123l-46 67l-46 -67h-123z" />
    <glyph glyph-name="atilde" unicode="&#xe3;" horiz-adv-x="511" 
d="M29 0zM29 152q0 78 41.5 112.5t133.5 40.5l107 8v31q0 30 -13.5 42t-45.5 12q-33 0 -91 -2.5t-97 -5.5l-4 93q108 29 204 29t138.5 -40t42.5 -128v-208q2 -25 8.5 -34t24.5 -13l-4 -101q-52 0 -82.5 7t-60.5 28q-73 -35 -147 -35q-155 0 -155 164zM296 109l15 4v107
l-91 -8q-56 -5 -56 -60t49 -55q38 0 83 12zM221 603q-46 18 -59 18q-28 0 -66 -23l-13 -8l-29 75q21 24 51.5 42t52.5 18q23 0 69 -18q47 -18 58 -18q25 0 66 25l14 9l29 -76q-16 -20 -47.5 -41t-56.5 -21q-22 0 -69 18z" />
    <glyph glyph-name="adieresis" unicode="&#xe4;" horiz-adv-x="511" 
d="M29 0zM29 152q0 78 41.5 112.5t133.5 40.5l107 8v31q0 30 -13.5 42t-45.5 12q-33 0 -91 -2.5t-97 -5.5l-4 93q108 29 204 29t138.5 -40t42.5 -128v-208q2 -25 8.5 -34t24.5 -13l-4 -101q-52 0 -82.5 7t-60.5 28q-73 -35 -147 -35q-155 0 -155 164zM296 109l15 4v107
l-91 -8q-56 -5 -56 -60t49 -55q38 0 83 12zM65 728h128v-132h-128v132zM281 728h128v-132h-128v132z" />
    <glyph glyph-name="aring" unicode="&#xe5;" horiz-adv-x="511" 
d="M29 0zM29 152q0 78 41.5 112.5t133.5 40.5l107 8v31q0 30 -13.5 42t-45.5 12q-33 0 -91 -2.5t-97 -5.5l-4 93q108 29 204 29t138.5 -40t42.5 -128v-208q2 -25 8.5 -34t24.5 -13l-4 -101q-52 0 -82.5 7t-60.5 28q-73 -35 -147 -35q-155 0 -155 164zM296 109l15 4v107
l-91 -8q-56 -5 -56 -60t49 -55q38 0 83 12zM182 555q-34 34 -34 83q0 50 34 83.5t83 33.5q50 0 83.5 -33.5t33.5 -83.5q0 -49 -33.5 -83t-83.5 -34q-49 0 -83 34zM297.5 606q12.5 13 12.5 32q0 20 -12.5 32.5t-32.5 12.5q-19 0 -32 -12.5t-13 -32.5q0 -19 13 -32t32 -13
q20 0 32.5 13z" />
    <glyph glyph-name="ae" unicode="&#xe6;" horiz-adv-x="784" 
d="M67.5 31q-38.5 43 -38.5 123q0 76 42.5 111.5t131.5 40.5l108 7v25q0 21 -14.5 33t-40.5 12q-66 0 -157 -8l-32 -3l-4 117q131 22 213 22q79 0 122 -37q52 37 133 37q218 0 218 -225l-10 -94h-294q1 -42 23.5 -61.5t68.5 -19.5q75 0 166 7l28 2l2 -104q-113 -28 -212 -28
q-98 0 -149 48l-23 -11q-83 -37 -164 -37q-79 0 -117.5 43zM617 295q0 53 -19.5 75t-66.5 22t-66.5 -22.5t-19.5 -74.5h172zM311 118l-1 93l-90 -4q-56 -3 -56 -51q0 -53 41 -53q36 0 106 15z" />
    <glyph glyph-name="ccedilla" unicode="&#xe7;" horiz-adv-x="446" 
d="M255 -12v-25q67 -1 95 -20t28 -72q0 -55 -28.5 -83.5t-82.5 -28.5q-42 0 -79 8l-14 3l4 78q21 -1 48 -1q38 0 38 26q0 22 -38 22h-24v95q-86 11 -125 74t-39 186q0 139 50 200.5t163 61.5q29 0 64 -5t94 -17l-4 -106q-85 8 -118 8q-46 0 -70 -12.5t-33.5 -42.5t-9.5 -86
q0 -57 9.5 -87t34 -43t71.5 -13l116 8l4 -107q-96 -20 -154 -21z" />
    <glyph glyph-name="egrave" unicode="&#xe8;" horiz-adv-x="510" 
d="M37 0zM89 47q-52 59 -52 191q0 138 54.5 206t169.5 68q106 0 160.5 -56.5t54.5 -169.5l-10 -93h-294q2 -35 12.5 -53.5t34 -26t65.5 -7.5q33 0 79 2t67 4l28 3l2 -99q-113 -28 -202 -28q-117 0 -169 59zM344 295q0 60 -18.5 83.5t-65.5 23.5q-48 0 -68 -24.5t-21 -82.5
h173zM110 638l40 115l252 -102l-30 -87z" />
    <glyph glyph-name="eacute" unicode="&#xe9;" horiz-adv-x="510" 
d="M37 0zM89 47q-52 59 -52 191q0 138 54.5 206t169.5 68q106 0 160.5 -56.5t54.5 -169.5l-10 -93h-294q2 -35 12.5 -53.5t34 -26t65.5 -7.5q33 0 79 2t67 4l28 3l2 -99q-113 -28 -202 -28q-117 0 -169 59zM344 295q0 60 -18.5 83.5t-65.5 23.5q-48 0 -68 -24.5t-21 -82.5
h173zM105 651l252 102l40 -115l-262 -74z" />
    <glyph glyph-name="ecircumflex" unicode="&#xea;" horiz-adv-x="510" 
d="M37 0zM89 47q-52 59 -52 191q0 138 54.5 206t169.5 68q106 0 160.5 -56.5t54.5 -169.5l-10 -93h-294q2 -35 12.5 -53.5t34 -26t65.5 -7.5q33 0 79 2t67 4l28 3l2 -99q-113 -28 -202 -28q-117 0 -169 59zM344 295q0 60 -18.5 83.5t-65.5 23.5q-48 0 -68 -24.5t-21 -82.5
h173zM215 731h84l128 -151h-123l-46 67l-46 -67h-123z" />
    <glyph glyph-name="edieresis" unicode="&#xeb;" horiz-adv-x="510" 
d="M37 0zM89 47q-52 59 -52 191q0 138 54.5 206t169.5 68q106 0 160.5 -56.5t54.5 -169.5l-10 -93h-294q2 -35 12.5 -53.5t34 -26t65.5 -7.5q33 0 79 2t67 4l28 3l2 -99q-113 -28 -202 -28q-117 0 -169 59zM344 295q0 60 -18.5 83.5t-65.5 23.5q-48 0 -68 -24.5t-21 -82.5
h173zM84 728h128v-132h-128v132zM300 728h128v-132h-128v132z" />
    <glyph glyph-name="igrave" unicode="&#xec;" horiz-adv-x="258" 
d="M0 0zM62 500h134v-500h-134v500zM-59 638l40 115l252 -102l-30 -87z" />
    <glyph glyph-name="iacute" unicode="&#xed;" horiz-adv-x="258" 
d="M31 0zM62 500h134v-500h-134v500zM31 651l252 102l40 -115l-262 -74z" />
    <glyph glyph-name="icircumflex" unicode="&#xee;" horiz-adv-x="258" 
d="M0 0zM62 500h134v-500h-134v500zM81 731h84l128 -151h-123l-46 67l-46 -67h-123z" />
    <glyph glyph-name="idieresis" unicode="&#xef;" horiz-adv-x="258" 
d="M0 0zM62 500h134v-500h-134v500zM-48 728h128v-132h-128v132zM168 728h128v-132h-128v132z" />
    <glyph glyph-name="eth" unicode="&#xf0;" horiz-adv-x="567" 
d="M38 216q0 106 55.5 164t162.5 58q62 0 113 -18l17 -6q-5 49 -25.5 82t-63.5 57l-129 -86l-54 76l76 51q-47 12 -108 24l18 94q120 -9 209 -39l96 64l54 -76l-54 -36q123 -88 123 -274q0 -188 -60.5 -274t-194.5 -86q-235 0 -235 225zM358 155.5q28 44.5 28 142.5
q-48 22 -122 22q-40 0 -62 -29.5t-22 -74.5q0 -105 93 -105q57 0 85 44.5z" />
    <glyph glyph-name="ntilde" unicode="&#xf1;" horiz-adv-x="553" 
d="M62 0zM62 500h133v-28q38 22 67.5 31t63.5 9q92 0 131 -59t39 -182v-271h-134v267q0 69 -16.5 97t-62.5 28q-33 0 -75 -14l-12 -4v-374h-134v500zM278 603q-46 18 -59 18q-28 0 -66 -23l-13 -8l-29 75q21 24 51.5 42t52.5 18q23 0 69 -18q47 -18 58 -18q25 0 66 25l14 9
l29 -76q-16 -20 -47.5 -41t-56.5 -21q-22 0 -69 18z" />
    <glyph glyph-name="ograve" unicode="&#xf2;" horiz-adv-x="532" 
d="M36 0zM94.5 56.5q-58.5 68.5 -58.5 194.5q0 125 58.5 193t171.5 68t171.5 -68t58.5 -193q0 -126 -58.5 -194.5t-171.5 -68.5t-171.5 68.5zM337 137q23 35 23 114t-23 113t-71 34t-71 -34t-23 -113t23 -114t71 -35t71 35zM123 638l40 115l252 -102l-30 -87z" />
    <glyph glyph-name="oacute" unicode="&#xf3;" horiz-adv-x="532" 
d="M36 0zM94.5 56.5q-58.5 68.5 -58.5 194.5q0 125 58.5 193t171.5 68t171.5 -68t58.5 -193q0 -126 -58.5 -194.5t-171.5 -68.5t-171.5 68.5zM337 137q23 35 23 114t-23 113t-71 34t-71 -34t-23 -113t23 -114t71 -35t71 35zM116 651l252 102l40 -115l-262 -74z" />
    <glyph glyph-name="ocircumflex" unicode="&#xf4;" horiz-adv-x="532" 
d="M36 0zM94.5 56.5q-58.5 68.5 -58.5 194.5q0 125 58.5 193t171.5 68t171.5 -68t58.5 -193q0 -126 -58.5 -194.5t-171.5 -68.5t-171.5 68.5zM337 137q23 35 23 114t-23 113t-71 34t-71 -34t-23 -113t23 -114t71 -35t71 35zM217 731h84l128 -151h-123l-46 67l-46 -67h-123z
" />
    <glyph glyph-name="otilde" unicode="&#xf5;" horiz-adv-x="532" 
d="M36 0zM94.5 56.5q-58.5 68.5 -58.5 194.5q0 125 58.5 193t171.5 68t171.5 -68t58.5 -193q0 -126 -58.5 -194.5t-171.5 -68.5t-171.5 68.5zM337 137q23 35 23 114t-23 113t-71 34t-71 -34t-23 -113t23 -114t71 -35t71 35zM258 603q-46 18 -59 18q-28 0 -66 -23l-13 -8
l-29 75q21 24 51.5 42t52.5 18q23 0 69 -18q47 -18 58 -18q25 0 66 25l14 9l29 -76q-16 -20 -47.5 -41t-56.5 -21q-22 0 -69 18z" />
    <glyph glyph-name="odieresis" unicode="&#xf6;" horiz-adv-x="532" 
d="M36 0zM94.5 56.5q-58.5 68.5 -58.5 194.5q0 125 58.5 193t171.5 68t171.5 -68t58.5 -193q0 -126 -58.5 -194.5t-171.5 -68.5t-171.5 68.5zM337 137q23 35 23 114t-23 113t-71 34t-71 -34t-23 -113t23 -114t71 -35t71 35zM93 728h128v-132h-128v132zM309 728h128v-132
h-128v132z" />
    <glyph glyph-name="divide" unicode="&#xf7;" 
d="M213 484h132v-132h-132v132zM50 311h460v-120h-460v120zM213 149h132v-132h-132v132z" />
    <glyph glyph-name="oslash" unicode="&#xf8;" horiz-adv-x="532" 
d="M82 -78l43 103q-89 60 -89 226q0 128 55 194.5t175 66.5q24 0 56 -5l40 100l81 -30l-41 -98q94 -58 94 -228q0 -263 -230 -263q-34 0 -63 6l-41 -102zM279 397l-13 1q-52 0 -73 -34t-21 -106q0 -70 12 -102zM339 136.5q21 34.5 21 108.5q0 69 -14 105l-100 -247
q4 -1 20 -1q52 0 73 34.5z" />
    <glyph glyph-name="ugrave" unicode="&#xf9;" horiz-adv-x="553" 
d="M57 0zM123.5 14q-36.5 26 -51.5 80t-15 144v262h134v-264q0 -54 5 -80.5t20.5 -37t47.5 -10.5q23 0 41.5 4t51.5 14v374h134v-500h-133v28q-42 -23 -71.5 -31.5t-62.5 -8.5q-64 0 -100.5 26zM98 638l40 115l252 -102l-30 -87z" />
    <glyph glyph-name="uacute" unicode="&#xfa;" horiz-adv-x="553" 
d="M57 0zM123.5 14q-36.5 26 -51.5 80t-15 144v262h134v-264q0 -54 5 -80.5t20.5 -37t47.5 -10.5q23 0 41.5 4t51.5 14v374h134v-500h-133v28q-42 -23 -71.5 -31.5t-62.5 -8.5q-64 0 -100.5 26zM130 651l252 102l40 -115l-262 -74z" />
    <glyph glyph-name="ucircumflex" unicode="&#xfb;" horiz-adv-x="553" 
d="M57 0zM123.5 14q-36.5 26 -51.5 80t-15 144v262h134v-264q0 -54 5 -80.5t20.5 -37t47.5 -10.5q23 0 41.5 4t51.5 14v374h134v-500h-133v28q-42 -23 -71.5 -31.5t-62.5 -8.5q-64 0 -100.5 26zM208 731h84l128 -151h-123l-46 67l-46 -67h-123z" />
    <glyph glyph-name="udieresis" unicode="&#xfc;" horiz-adv-x="553" 
d="M57 0zM123.5 14q-36.5 26 -51.5 80t-15 144v262h134v-264q0 -54 5 -80.5t20.5 -37t47.5 -10.5q23 0 41.5 4t51.5 14v374h134v-500h-133v28q-42 -23 -71.5 -31.5t-62.5 -8.5q-64 0 -100.5 26zM106 728h128v-132h-128v132zM322 728h128v-132h-128v132z" />
    <glyph glyph-name="yacute" unicode="&#xfd;" horiz-adv-x="500" 
d="M16 0zM233 0h-94l-123 500h132l91 -386h23l91 386h132l-176 -710h-131zM122 651l252 102l40 -115l-262 -74z" />
    <glyph glyph-name="thorn" unicode="&#xfe;" horiz-adv-x="544" 
d="M62 700h134v-215q64 27 108 27q72 0 116 -25t65 -82.5t21 -155.5q0 -99 -23 -155.5t-72 -81t-132 -24.5l-83 8v-206h-134v910zM329.5 118.5q21.5 14.5 31 47t9.5 89.5q0 137 -84 137q-42 0 -76 -10l-14 -3v-269q45 -6 73 -6q39 0 60.5 14.5z" />
    <glyph glyph-name="ydieresis" unicode="&#xff;" horiz-adv-x="500" 
d="M16 0zM233 0h-94l-123 500h132l91 -386h23l91 386h132l-176 -710h-131zM79 728h128v-132h-128v132zM295 728h128v-132h-128v132z" />
    <glyph glyph-name="Amacron" unicode="&#x100;" horiz-adv-x="602" 
d="M17 0zM420 123h-238l-27 -123h-138l153 680h262l153 -680h-138zM325 566h-48l-69 -323h186zM124 880h347v-98h-347v98z" />
    <glyph glyph-name="amacron" unicode="&#x101;" horiz-adv-x="511" 
d="M29 0zM29 152q0 78 41.5 112.5t133.5 40.5l107 8v31q0 30 -13.5 42t-45.5 12q-33 0 -91 -2.5t-97 -5.5l-4 93q108 29 204 29t138.5 -40t42.5 -128v-208q2 -25 8.5 -34t24.5 -13l-4 -101q-52 0 -82.5 7t-60.5 28q-73 -35 -147 -35q-155 0 -155 164zM296 109l15 4v107
l-91 -8q-56 -5 -56 -60t49 -55q38 0 83 12zM107 697h287v-100h-287v100z" />
    <glyph glyph-name="Abreve" unicode="&#x102;" horiz-adv-x="602" 
d="M17 0zM420 123h-238l-27 -123h-138l153 680h262l153 -680h-138zM325 566h-48l-69 -323h186zM166.5 799q-46.5 40 -55.5 111h121q4 -25 21.5 -41t44.5 -16t44.5 16t20.5 41h121q-9 -71 -56 -111t-131 -40t-130.5 40z" />
    <glyph glyph-name="abreve" unicode="&#x103;" horiz-adv-x="512" 
d="M116.5 628q-49.5 43 -57.5 120h139q8 -44 56 -44t54 44h139q-8 -77 -57.5 -120t-136.5 -43t-136.5 43zM67.5 31.5q-38.5 43.5 -38.5 122.5q0 76 41.5 111t132.5 41l108 7v25q0 20 -14 32.5t-36 12.5q-66 0 -194 -8l-4 114l35 5q110 17 171 17q90 0 133 -40.5t43 -131.5
v-185q0 -29 6 -38.5t26 -13.5l-4 -114q-58 0 -85.5 7t-56.5 27l-23 -8q-70 -26 -130 -26q-72 0 -110.5 43.5zM311 118v93l-91 -4q-56 -3 -56 -51q0 -53 41 -53q42 0 106 15z" />
    <glyph glyph-name="Aogonek" unicode="&#x104;" horiz-adv-x="602" 
d="M597 -205q-61 -11 -104 -11q-46 0 -76.5 26t-30.5 66q0 37 19 70t42 50l5 4h-5l-27 123h-238l-27 -123h-138l153 680h262l153 -680h-17q-57 -47 -57 -80q0 -34 32 -34l42 4zM325 566h-48l-69 -323h186z" />
    <glyph glyph-name="aogonek" unicode="&#x105;" horiz-adv-x="511" 
d="M466 -110l12 -95q-61 -11 -104 -11q-46 0 -76.5 26t-30.5 66q0 37 19 70t42 50l20 15h3q-8 3 -20 12q-73 -35 -147 -35q-155 0 -155 164q0 78 41.5 112.5t133.5 40.5l107 8v31q0 30 -13.5 42t-45.5 12q-33 0 -91 -2.5t-97 -5.5l-4 93q108 29 204 29t138.5 -40t42.5 -128
v-208q2 -25 8.5 -34t24.5 -13l-4 -101q-27 0 -38 1q-44 -38 -44 -69q0 -34 32 -34zM311 220l-91 -8q-56 -5 -56 -60t49 -55q38 0 83 12l15 4v107z" />
    <glyph glyph-name="Cacute" unicode="&#x106;" horiz-adv-x="543" 
d="M47 0zM148 26q-58 38 -79.5 112.5t-21.5 198.5q0 136 23.5 212t78.5 109.5t154 33.5q91 0 203 -27l-4 -110q-99 15 -161 15q-63 0 -95 -20t-44.5 -65.5t-12.5 -128.5v-37q2 -86 12.5 -128.5t41.5 -61.5t95 -19q68 0 164 14l3 -113q-109 -23 -191 -23q-108 0 -166 38z
M147 839l252 106l41 -120l-260 -79z" />
    <glyph glyph-name="cacute" unicode="&#x107;" horiz-adv-x="446" 
d="M38 0zM86.5 50.5q-48.5 62.5 -48.5 199.5q0 139 50 200.5t163 61.5q29 0 64 -5t94 -17l-4 -106q-85 8 -118 8q-46 0 -70 -12.5t-33.5 -42.5t-9.5 -86q0 -57 9.5 -87t34 -43t71.5 -13l116 8l4 -107q-106 -21 -166 -21q-108 0 -156.5 62.5zM97 651l252 102l40 -115
l-262 -74z" />
    <glyph glyph-name="Ccircumflex" unicode="&#x108;" horiz-adv-x="543" 
d="M47 0zM148 26q-58 38 -79.5 112.5t-21.5 198.5q0 136 23.5 212t78.5 109.5t154 33.5q91 0 203 -27l-4 -110q-99 15 -161 15q-63 0 -95 -20t-44.5 -65.5t-12.5 -128.5v-37q2 -86 12.5 -128.5t41.5 -61.5t95 -19q68 0 164 14l3 -113q-109 -23 -191 -23q-108 0 -166 38z
M241 914h117l134 -149h-142l-49 56l-52 -56h-142z" />
    <glyph glyph-name="ccircumflex" unicode="&#x109;" horiz-adv-x="446" 
d="M38 0zM86.5 50.5q-48.5 62.5 -48.5 199.5q0 139 50 200.5t163 61.5q29 0 64 -5t94 -17l-4 -106q-85 8 -118 8q-46 0 -70 -12.5t-33.5 -42.5t-9.5 -86q0 -57 9.5 -87t34 -43t71.5 -13l116 8l4 -107q-106 -21 -166 -21q-108 0 -156.5 62.5zM180 731h84l128 -151h-123
l-46 67l-46 -67h-123z" />
    <glyph glyph-name="Cdotaccent" unicode="&#x10a;" horiz-adv-x="543" 
d="M47 0zM148 26q-58 38 -79.5 112.5t-21.5 198.5q0 136 23.5 212t78.5 109.5t154 33.5q91 0 203 -27l-4 -110q-99 15 -161 15q-63 0 -95 -20t-44.5 -65.5t-12.5 -128.5v-37q2 -86 12.5 -128.5t41.5 -61.5t95 -19q68 0 164 14l3 -113q-109 -23 -191 -23q-108 0 -166 38z
M219 895h134v-135h-134v135z" />
    <glyph glyph-name="cdotaccent" unicode="&#x10b;" horiz-adv-x="446" 
d="M38 0zM86.5 50.5q-48.5 62.5 -48.5 199.5q0 139 50 200.5t163 61.5q29 0 64 -5t94 -17l-4 -106q-85 8 -118 8q-46 0 -70 -12.5t-33.5 -42.5t-9.5 -86q0 -57 9.5 -87t34 -43t71.5 -13l116 8l4 -107q-106 -21 -166 -21q-108 0 -156.5 62.5zM189 691h134v-135h-134v135z" />
    <glyph glyph-name="Ccaron" unicode="&#x10c;" horiz-adv-x="543" 
d="M47 0zM148 26q-58 38 -79.5 112.5t-21.5 198.5q0 136 23.5 212t78.5 109.5t154 33.5q91 0 203 -27l-4 -110q-99 15 -161 15q-63 0 -95 -20t-44.5 -65.5t-12.5 -128.5v-37q2 -86 12.5 -128.5t41.5 -61.5t95 -19q68 0 164 14l3 -113q-109 -23 -191 -23q-108 0 -166 38z
M116 914h142l52 -56l49 56h142l-134 -149h-117z" />
    <glyph glyph-name="ccaron" unicode="&#x10d;" horiz-adv-x="446" 
d="M38 0zM86.5 50.5q-48.5 62.5 -48.5 199.5q0 139 50 200.5t163 61.5q29 0 64 -5t94 -17l-4 -106q-85 8 -118 8q-46 0 -70 -12.5t-33.5 -42.5t-9.5 -86q0 -57 9.5 -87t34 -43t71.5 -13l116 8l4 -107q-106 -21 -166 -21q-108 0 -156.5 62.5zM196 731l46 -67l46 67h123
l-128 -151h-84l-126 151h123z" />
    <glyph glyph-name="Dcaron" unicode="&#x10e;" horiz-adv-x="638" 
d="M74 0zM481 647.5q62 -32.5 86.5 -102.5t24.5 -194q0 -129 -24 -204t-86.5 -111t-178.5 -36h-229v680h229q116 0 178 -32.5zM399.5 146q31.5 26 41 74.5t9.5 138.5q0 80 -10 121t-41 60.5t-96 19.5h-91v-440h91q65 0 96.5 26zM112 914h142l52 -56l49 56h142l-134 -149
h-117z" />
    <glyph glyph-name="dcaron" unicode="&#x10f;" horiz-adv-x="549" 
d="M38 0zM82 51.5q-44 63.5 -44 191.5q0 140 49.5 204.5t152.5 64.5q37 0 113 -14v202h134v-700h-133v21q-41 -19 -70 -26t-58 -7q-100 0 -144 63.5zM339 120l14 3v263q-53 10 -89 10q-48 0 -69 -34t-21 -116q0 -75 19 -106.5t64 -31.5q36 0 82 12zM590 678h130l-55 -234
h-121z" />
    <glyph glyph-name="Dcroat" unicode="&#x110;" horiz-adv-x="642" 
d="M79 277h-54v132h54v281h227q116 0 178 -33.5t86.5 -104.5t24.5 -196q0 -130 -24 -206t-86.5 -113t-178.5 -37h-227v277zM306 131q54 0 85 16.5t46.5 64.5t15.5 142q0 80 -8.5 120.5t-39.5 62.5t-99 22h-91v-150h130v-132h-130v-146h91z" />
    <glyph glyph-name="dcroat" unicode="&#x111;" horiz-adv-x="549" 
d="M118.5 15.5q-42.5 27.5 -61.5 85t-19 150.5q0 135 51 198t156 63q32 0 108 -14v124h-224v116h327v-38h31v-700h-133v21q-70 -33 -121 -33q-72 0 -114.5 27.5zM339 120l14 3v263q-53 10 -98 10q-81 0 -81 -144q0 -78 18 -111t60 -33q41 0 87 12z" />
    <glyph glyph-name="Emacron" unicode="&#x112;" horiz-adv-x="554" 
d="M74 0zM212 560v-159h242v-118h-242v-163h302v-120h-440v680h440v-120h-302zM116 880h347v-98h-347v98z" />
    <glyph glyph-name="emacron" unicode="&#x113;" horiz-adv-x="510" 
d="M37 0zM89 47q-52 59 -52 191q0 138 54.5 206t169.5 68q106 0 160.5 -56.5t54.5 -169.5l-10 -93h-294q2 -35 12.5 -53.5t34 -26t65.5 -7.5q33 0 79 2t67 4l28 3l2 -99q-113 -28 -202 -28q-117 0 -169 59zM344 295q0 60 -18.5 83.5t-65.5 23.5q-48 0 -68 -24.5t-21 -82.5
h173zM113 697h287v-100h-287v100z" />
    <glyph glyph-name="Ebreve" unicode="&#x114;" horiz-adv-x="554" 
d="M74 0zM212 560v-159h242v-118h-242v-163h302v-120h-440v680h440v-120h-302zM169.5 799q-46.5 40 -55.5 111h121q4 -25 21.5 -41t44.5 -16t44.5 16t20.5 41h121q-9 -71 -56 -111t-131 -40t-130.5 40z" />
    <glyph glyph-name="ebreve" unicode="&#x115;" horiz-adv-x="510" 
d="M37 0zM146 617.5q-43 44.5 -52 112.5h101q4 -31 20.5 -48.5t42.5 -17.5q56 0 63 66h101q-9 -68 -52 -112.5t-112 -44.5t-112 44.5zM89 47q-52 59 -52 191q0 138 54.5 206t169.5 68q106 0 160.5 -56.5t54.5 -169.5l-10 -93h-294q2 -35 12.5 -53.5t34 -26t65.5 -7.5
q33 0 79 2t67 4l28 3l2 -99q-113 -28 -202 -28q-117 0 -169 59zM344 295q0 60 -18.5 83.5t-65.5 23.5q-48 0 -68 -24.5t-21 -82.5h173z" />
    <glyph glyph-name="Edotaccent" unicode="&#x116;" horiz-adv-x="554" 
d="M74 0zM212 560v-159h242v-118h-242v-163h302v-120h-440v680h440v-120h-302zM233 902h134v-135h-134v135z" />
    <glyph glyph-name="edotaccent" unicode="&#x117;" horiz-adv-x="510" 
d="M37 0zM89 47q-52 59 -52 191q0 138 54.5 206t169.5 68q106 0 160.5 -56.5t54.5 -169.5l-10 -93h-294q2 -35 12.5 -53.5t34 -26t65.5 -7.5q33 0 79 2t67 4l28 3l2 -99q-113 -28 -202 -28q-117 0 -169 59zM344 295q0 60 -18.5 83.5t-65.5 23.5q-48 0 -68 -24.5t-21 -82.5
h173zM190 691h134v-135h-134v135z" />
    <glyph glyph-name="Eogonek" unicode="&#x118;" horiz-adv-x="554" 
d="M516 -205q-61 -11 -104 -11q-46 0 -76.5 26t-30.5 66q0 37 19 70t42 50l5 4h-297v680h440v-120h-302v-159h242v-118h-242v-163h302v-120h-27q-57 -47 -57 -80q0 -34 32 -34l42 4z" />
    <glyph glyph-name="eogonek" unicode="&#x119;" horiz-adv-x="510" 
d="M466 193h-294q2 -35 12.5 -53.5t34 -26t65.5 -7.5q33 0 79 2t67 4l28 3l2 -99l-64 -14l11 -1q-58 -46 -58 -81q0 -34 32 -34l42 4l12 -95q-61 -11 -104 -11q-46 0 -76.5 26t-30.5 66q0 33 15.5 62.5t36.5 49.5h-18q-117 0 -169 59t-52 191q0 138 54.5 206t169.5 68
q106 0 160.5 -56.5t54.5 -169.5zM344 295q0 60 -18.5 83.5t-65.5 23.5q-48 0 -68 -24.5t-21 -82.5h173z" />
    <glyph glyph-name="Ecaron" unicode="&#x11a;" horiz-adv-x="554" 
d="M74 0zM212 560v-159h242v-118h-242v-163h302v-120h-440v680h440v-120h-302zM87 914h142l52 -56l49 56h142l-134 -149h-117z" />
    <glyph glyph-name="ecaron" unicode="&#x11b;" horiz-adv-x="510" 
d="M37 0zM89 47q-52 59 -52 191q0 138 54.5 206t169.5 68q106 0 160.5 -56.5t54.5 -169.5l-10 -93h-294q2 -35 12.5 -53.5t34 -26t65.5 -7.5q33 0 79 2t67 4l28 3l2 -99q-113 -28 -202 -28q-117 0 -169 59zM344 295q0 60 -18.5 83.5t-65.5 23.5q-48 0 -68 -24.5t-21 -82.5
h173zM208 731l46 -67l46 67h123l-128 -151h-84l-126 151h123z" />
    <glyph glyph-name="Gcircumflex" unicode="&#x11c;" horiz-adv-x="611" 
d="M45 0zM157.5 25q-60.5 37 -86.5 114t-26 204q0 125 27 201.5t86.5 112t159.5 35.5q93 0 201 -21l36 -7l-4 -107q-116 13 -196 13q-79 0 -115 -26.5t-44.5 -72t-8.5 -135.5q0 -89 12 -137t43.5 -69.5t93.5 -21.5q59 0 83 4v132h-62v120h198v-353q-146 -23 -232 -23
q-105 0 -165.5 37zM270 914h117l134 -149h-142l-49 56l-52 -56h-142z" />
    <glyph glyph-name="gcircumflex" unicode="&#x11d;" horiz-adv-x="534" 
d="M37 0zM96.5 -198.5q-59.5 31.5 -59.5 102.5q0 37 17.5 65.5t54.5 58.5q-18 12 -27.5 31t-9.5 40q0 15 7.5 31t31.5 54q-68 50 -68 146q0 91 55.5 135.5t154.5 44.5q42 0 101 -13l161 5v-107l-75 6q13 -21 17.5 -36t4.5 -41q0 -90 -51 -128.5t-155 -38.5q-30 0 -46 4
q-10 -24 -10 -41q0 -21 20.5 -25.5t76.5 -5.5q77 -2 122.5 -12t70.5 -40.5t25 -89.5q0 -91 -62 -134t-190 -43q-107 0 -166.5 31.5zM330 333q0 73 -76 73q-77 0 -77 -73q0 -74 77 -74q76 0 76 74zM354.5 -107q25.5 13 25.5 40q0 25 -18.5 31.5t-43 7.5t-32.5 1l-90 7
q-27 -27 -27 -54q0 -24 25.5 -35t77.5 -11q57 0 82.5 13zM229 731h84l128 -151h-123l-46 67l-46 -67h-123z" />
    <glyph glyph-name="Gbreve" unicode="&#x11e;" horiz-adv-x="611" 
d="M45 0zM157.5 25q-60.5 37 -86.5 114t-26 204q0 125 27 201.5t86.5 112t159.5 35.5q93 0 201 -21l36 -7l-4 -107q-116 13 -196 13q-79 0 -115 -26.5t-44.5 -72t-8.5 -135.5q0 -89 12 -137t43.5 -69.5t93.5 -21.5q59 0 83 4v132h-62v120h198v-353q-146 -23 -232 -23
q-105 0 -165.5 37zM191.5 799q-46.5 40 -55.5 111h121q4 -25 21.5 -41t44.5 -16t44.5 16t20.5 41h121q-9 -71 -56 -111t-131 -40t-130.5 40z" />
    <glyph glyph-name="gbreve" unicode="&#x11f;" horiz-adv-x="534" 
d="M37 0zM96.5 -198.5q-59.5 31.5 -59.5 102.5q0 37 17.5 65.5t54.5 58.5q-18 12 -27.5 31t-9.5 40q0 15 7.5 31t31.5 54q-68 50 -68 146q0 91 55.5 135.5t154.5 44.5q42 0 101 -13l161 5v-107l-75 6q13 -21 17.5 -36t4.5 -41q0 -90 -51 -128.5t-155 -38.5q-30 0 -46 4
q-10 -24 -10 -41q0 -21 20.5 -25.5t76.5 -5.5q77 -2 122.5 -12t70.5 -40.5t25 -89.5q0 -91 -62 -134t-190 -43q-107 0 -166.5 31.5zM330 333q0 73 -76 73q-77 0 -77 -73q0 -74 77 -74q76 0 76 74zM354.5 -107q25.5 13 25.5 40q0 25 -18.5 31.5t-43 7.5t-32.5 1l-90 7
q-27 -27 -27 -54q0 -24 25.5 -35t77.5 -11q57 0 82.5 13zM159 617.5q-43 44.5 -52 112.5h101q4 -31 20.5 -48.5t42.5 -17.5q56 0 63 66h101q-9 -68 -52 -112.5t-112 -44.5t-112 44.5z" />
    <glyph glyph-name="Gdotaccent" unicode="&#x120;" horiz-adv-x="611" 
d="M45 0zM157.5 25q-60.5 37 -86.5 114t-26 204q0 125 27 201.5t86.5 112t159.5 35.5q93 0 201 -21l36 -7l-4 -107q-116 13 -196 13q-79 0 -115 -26.5t-44.5 -72t-8.5 -135.5q0 -89 12 -137t43.5 -69.5t93.5 -21.5q59 0 83 4v132h-62v120h198v-353q-146 -23 -232 -23
q-105 0 -165.5 37zM245 902h134v-135h-134v135z" />
    <glyph glyph-name="gdotaccent" unicode="&#x121;" horiz-adv-x="534" 
d="M37 0zM96.5 -198.5q-59.5 31.5 -59.5 102.5q0 37 17.5 65.5t54.5 58.5q-18 12 -27.5 31t-9.5 40q0 15 7.5 31t31.5 54q-68 50 -68 146q0 91 55.5 135.5t154.5 44.5q42 0 101 -13l161 5v-107l-75 6q13 -21 17.5 -36t4.5 -41q0 -90 -51 -128.5t-155 -38.5q-30 0 -46 4
q-10 -24 -10 -41q0 -21 20.5 -25.5t76.5 -5.5q77 -2 122.5 -12t70.5 -40.5t25 -89.5q0 -91 -62 -134t-190 -43q-107 0 -166.5 31.5zM330 333q0 73 -76 73q-77 0 -77 -73q0 -74 77 -74q76 0 76 74zM354.5 -107q25.5 13 25.5 40q0 25 -18.5 31.5t-43 7.5t-32.5 1l-90 7
q-27 -27 -27 -54q0 -24 25.5 -35t77.5 -11q57 0 82.5 13zM204 691h134v-135h-134v135z" />
    <glyph glyph-name="Gcommaaccent" unicode="&#x122;" horiz-adv-x="611" 
d="M45 0zM157.5 25q-60.5 37 -86.5 114t-26 204q0 125 27 201.5t86.5 112t159.5 35.5q93 0 201 -21l36 -7l-4 -107q-116 13 -196 13q-79 0 -115 -26.5t-44.5 -72t-8.5 -135.5q0 -89 12 -137t43.5 -69.5t93.5 -21.5q59 0 83 4v132h-62v120h198v-353q-146 -23 -232 -23
q-105 0 -165.5 37zM266 -77h130l-55 -234h-121z" />
    <glyph glyph-name="gcommaaccent" unicode="&#x123;" horiz-adv-x="534" 
d="M300 583h-130l55 234h121zM96.5 -198.5q-59.5 31.5 -59.5 102.5q0 37 17.5 65.5t54.5 58.5q-18 12 -27.5 31t-9.5 40q0 15 7.5 31t31.5 54q-68 50 -68 146q0 91 55.5 135.5t154.5 44.5q42 0 101 -13l161 5v-107l-75 6q13 -21 17.5 -36t4.5 -41q0 -90 -51 -128.5
t-155 -38.5q-30 0 -46 4q-10 -24 -10 -41q0 -21 20.5 -25.5t76.5 -5.5q77 -2 122.5 -12t70.5 -40.5t25 -89.5q0 -91 -62 -134t-190 -43q-107 0 -166.5 31.5zM330 333q0 73 -76 73q-77 0 -77 -73q0 -74 77 -74q76 0 76 74zM354.5 -107q25.5 13 25.5 40q0 25 -18.5 31.5
t-43 7.5t-32.5 1l-90 7q-27 -27 -27 -54q0 -24 25.5 -35t77.5 -11q57 0 82.5 13z" />
    <glyph glyph-name="Hcircumflex" unicode="&#x124;" horiz-adv-x="677" 
d="M74 0zM603 680v-680h-138v282h-253v-282h-138v680h138v-278h253v278h138zM280 914h117l134 -149h-142l-49 56l-52 -56h-142z" />
    <glyph glyph-name="hcircumflex" unicode="&#x125;" horiz-adv-x="553" 
d="M62 0zM62 700h134v-224q38 19 67.5 27.5t63.5 8.5q92 0 130.5 -58.5t38.5 -182.5v-271h-134v268q0 68 -16 96t-62 28q-36 0 -75 -12l-13 -4v-376h-134v700zM233 901h84l128 -151h-123l-46 67l-46 -67h-123z" />
    <glyph glyph-name="Hbar" unicode="&#x126;" horiz-adv-x="685" 
d="M78 486h-59v116h59v78h138v-78h253v78h138v-78h66v-116h-66v-486h-138v282h-253v-282h-138v486zM469 402v84h-253v-84h253z" />
    <glyph glyph-name="hbar" unicode="&#x127;" horiz-adv-x="553" 
d="M62 532h-50v116h50v52h134v-52h143v-116h-143v-56q69 36 124 36q97 0 136.5 -57t39.5 -184v-271h-134v268q0 66 -16 95t-59 29q-39 0 -78 -12l-13 -4v-376h-134v532z" />
    <glyph glyph-name="Itilde" unicode="&#x128;" horiz-adv-x="286" 
d="M0 0zM74 680h138v-680h-138v680zM136 781q-66 23 -77 23q-24 0 -67 -32l-14 -10l-29 96q22 26 53.5 45t59.5 19q27 0 90 -23t72 -23q23 0 67 32l14 10l29 -97q-17 -19 -49 -41t-60 -22q-25 0 -89 23z" />
    <glyph glyph-name="itilde" unicode="&#x129;" horiz-adv-x="258" 
d="M0 0zM62 500h134v-500h-134v500zM129 603q-46 18 -59 18q-28 0 -66 -23l-13 -8l-29 75q21 24 51.5 42t52.5 18q23 0 69 -18q47 -18 58 -18q25 0 66 25l14 9l29 -76q-16 -20 -47.5 -41t-56.5 -21q-22 0 -69 18z" />
    <glyph glyph-name="Imacron" unicode="&#x12a;" horiz-adv-x="286" 
d="M0 0zM74 680h138v-680h-138v680zM-27 880h347v-98h-347v98z" />
    <glyph glyph-name="imacron" unicode="&#x12b;" horiz-adv-x="258" 
d="M0 0zM62 500h134v-500h-134v500zM-14 697h287v-100h-287v100z" />
    <glyph glyph-name="Ibreve" unicode="&#x12c;" horiz-adv-x="286" 
d="M0 0zM74 680h138v-680h-138v680zM29.5 799q-46.5 40 -55.5 111h121q4 -25 21.5 -41t44.5 -16t44.5 16t20.5 41h121q-9 -71 -56 -111t-131 -40t-130.5 40z" />
    <glyph glyph-name="ibreve" unicode="&#x12d;" horiz-adv-x="258" 
d="M0 0zM62 500h134v-500h-134v500zM17 617.5q-43 44.5 -52 112.5h101q4 -31 20.5 -48.5t42.5 -17.5q56 0 63 66h101q-9 -68 -52 -112.5t-112 -44.5t-112 44.5z" />
    <glyph glyph-name="Iogonek" unicode="&#x12e;" horiz-adv-x="286" 
d="M231 -205q-61 -11 -104 -11q-46 0 -76.5 26t-30.5 66q0 37 19 70t42 50l5 4h-12v680h138v-680h-10q-57 -47 -57 -80q0 -34 32 -34l42 4z" />
    <glyph glyph-name="iogonek" unicode="&#x12f;" horiz-adv-x="258" 
d="M196 564h-134v135h134v-135zM215 -205q-61 -11 -104 -11q-46 0 -76.5 26t-30.5 66q0 37 19 70t42 50l5 4h-8v500h134v-500h-10q-57 -47 -57 -80q0 -34 32 -34l42 4z" />
    <glyph glyph-name="Idotaccent" unicode="&#x130;" horiz-adv-x="286" 
d="M74 0zM74 680h138v-680h-138v680zM76 902h134v-135h-134v135z" />
    <glyph glyph-name="dotlessi" unicode="&#x131;" horiz-adv-x="258" 
d="M62 500h134v-500h-134v500z" />
    <glyph glyph-name="Jcircumflex" unicode="&#x134;" horiz-adv-x="302" 
d="M0 0zM19 50q41 0 58.5 15.5t17.5 55.5v559h137l1 -565q0 -73 -21 -112.5t-66.5 -56t-126.5 -16.5v120zM105 914h117l134 -149h-142l-49 56l-52 -56h-142z" />
    <glyph glyph-name="jcircumflex" unicode="&#x135;" horiz-adv-x="259" 
d="M0 0zM-34 -131q45 30 64.5 50t26 42t6.5 63v476h134v-477q0 -70 -15 -111.5t-51.5 -72.5t-111.5 -69zM89 731h84l128 -151h-123l-46 67l-46 -67h-123z" />
    <glyph glyph-name="Kcommaaccent" unicode="&#x136;" horiz-adv-x="593" 
d="M74 0zM304 272l-92 -9v-263h-138v680h138v-297l93 9l111 288h157l-148 -340l152 -340h-159zM245 -77h130l-55 -234h-121z" />
    <glyph glyph-name="kcommaaccent" unicode="&#x137;" horiz-adv-x="515" 
d="M0 0zM62 700h134v-398l51 9l99 189h150l-130 -237l137 -263h-151l-101 195l-55 -9v-186h-134v700zM36 -77h130l-55 -234h-121z" />
    <glyph glyph-name="Lacute" unicode="&#x139;" horiz-adv-x="472" 
d="M74 0zM461 122v-122h-387v680h138v-558h249zM110 839l252 106l41 -120l-260 -79z" />
    <glyph glyph-name="lacute" unicode="&#x13a;" horiz-adv-x="270" 
d="M41 0zM68 700h134v-700h-134v700zM41 861l252 102l40 -115l-262 -74z" />
    <glyph glyph-name="Lcommaaccent" unicode="&#x13b;" horiz-adv-x="472" 
d="M74 0zM461 122v-122h-387v680h138v-558h249zM204 -77h130l-55 -234h-121z" />
    <glyph glyph-name="lcommaaccent" unicode="&#x13c;" horiz-adv-x="270" 
d="M20 0zM68 700h134v-700h-134v700zM66 -77h130l-55 -234h-121z" />
    <glyph glyph-name="Lcaron" unicode="&#x13d;" horiz-adv-x="498" 
d="M461 690v-260h-130v260h130zM212 122h249v-122h-387v680h138v-558z" />
    <glyph glyph-name="lcaron" unicode="&#x13e;" horiz-adv-x="377" 
d="M68 0zM68 700h134v-700h-134v700zM303 678h130l-55 -234h-121z" />
    <glyph glyph-name="Lslash" unicode="&#x141;" horiz-adv-x="481" 
d="M83 217l-42 -29l-65 90l107 75v327h138v-231l99 70l65 -90l-164 -115v-192h249v-122h-387v217z" />
    <glyph glyph-name="lslash" unicode="&#x142;" horiz-adv-x="381" 
d="M119 218l-51 -35l-65 90l116 81v346h134v-252l63 44l65 -90l-128 -90v-312h-134v218z" />
    <glyph glyph-name="Nacute" unicode="&#x143;" horiz-adv-x="693" 
d="M74 0zM619 680v-680h-227l-170 560h-10v-560h-138v680h233l164 -560h10v560h138zM202 839l252 106l41 -120l-260 -79z" />
    <glyph glyph-name="nacute" unicode="&#x144;" horiz-adv-x="553" 
d="M62 0zM62 500h133v-28q38 22 67.5 31t63.5 9q92 0 131 -59t39 -182v-271h-134v267q0 69 -16.5 97t-62.5 28q-33 0 -75 -14l-12 -4v-374h-134v500zM146 651l252 102l40 -115l-262 -74z" />
    <glyph glyph-name="Ncommaaccent" unicode="&#x145;" horiz-adv-x="693" 
d="M74 0zM619 680v-680h-227l-170 560h-10v-560h-138v680h233l164 -560h10v560h138zM299 -77h130l-55 -234h-121z" />
    <glyph glyph-name="ncommaaccent" unicode="&#x146;" horiz-adv-x="553" 
d="M0 0zM62 500h133v-28q38 22 67.5 31t63.5 9q92 0 131 -59t39 -182v-271h-134v267q0 69 -16.5 97t-62.5 28q-33 0 -75 -14l-12 -4v-374h-134v500zM36 -77h130l-55 -234h-121z" />
    <glyph glyph-name="Ncaron" unicode="&#x147;" horiz-adv-x="693" 
d="M74 0zM619 680v-680h-227l-170 560h-10v-560h-138v680h233l164 -560h10v560h138zM155 914h142l52 -56l49 56h142l-134 -149h-117z" />
    <glyph glyph-name="ncaron" unicode="&#x148;" horiz-adv-x="553" 
d="M62 0zM62 500h133v-28q38 22 67.5 31t63.5 9q92 0 131 -59t39 -182v-271h-134v267q0 69 -16.5 97t-62.5 28q-33 0 -75 -14l-12 -4v-374h-134v500zM228 731l46 -67l46 67h123l-128 -151h-84l-126 151h123z" />
    <glyph glyph-name="Eng" unicode="&#x14a;" horiz-adv-x="693" 
d="M405 -92q41 0 58.5 15.5t17.5 55.5v21h-89l-170 560h-10v-560h-138v680h233l164 -560h10v560h138v-707q0 -82 -27.5 -123t-91.5 -54q-35 -8 -95 -8v120z" />
    <glyph glyph-name="eng" unicode="&#x14b;" horiz-adv-x="552" 
d="M258 -137q49 27 69.5 43.5t27.5 36t7 57.5v261q0 128 -66 128q-31 0 -83 -13l-18 -5v-371h-134v499h134v-22q84 35 129 35q91 0 131.5 -62.5t40.5 -188.5v-256q0 -73 -14 -114.5t-51 -72t-113 -66.5z" />
    <glyph glyph-name="Omacron" unicode="&#x14c;" horiz-adv-x="652" 
d="M44 0zM161 25q-62 37 -89.5 113.5t-27.5 198.5q0 123 27.5 200.5t89.5 116t165 38.5t165 -38.5t89.5 -116t27.5 -200.5q0 -120 -26.5 -196t-88.5 -114.5t-167 -38.5q-103 0 -165 37zM410.5 130.5q30.5 22.5 43 72t12.5 134.5t-13 135.5t-43.5 75t-83.5 24.5t-83.5 -24.5
t-43.5 -75t-13 -135.5q0 -79 11 -128t41.5 -75t87.5 -26q54 0 84.5 22.5zM149 880h347v-98h-347v98z" />
    <glyph glyph-name="omacron" unicode="&#x14d;" horiz-adv-x="532" 
d="M36 0zM94.5 56.5q-58.5 68.5 -58.5 194.5q0 125 58.5 193t171.5 68t171.5 -68t58.5 -193q0 -126 -58.5 -194.5t-171.5 -68.5t-171.5 68.5zM337 137q23 35 23 114t-23 113t-71 34t-71 -34t-23 -113t23 -114t71 -35t71 35zM126 697h287v-100h-287v100z" />
    <glyph glyph-name="Obreve" unicode="&#x14e;" horiz-adv-x="652" 
d="M44 0zM161 25q-62 37 -89.5 113.5t-27.5 198.5q0 123 27.5 200.5t89.5 116t165 38.5t165 -38.5t89.5 -116t27.5 -200.5q0 -120 -26.5 -196t-88.5 -114.5t-167 -38.5q-103 0 -165 37zM410.5 130.5q30.5 22.5 43 72t12.5 134.5t-13 135.5t-43.5 75t-83.5 24.5t-83.5 -24.5
t-43.5 -75t-13 -135.5q0 -79 11 -128t41.5 -75t87.5 -26q54 0 84.5 22.5zM196.5 799q-46.5 40 -55.5 111h121q4 -25 21.5 -41t44.5 -16t44.5 16t20.5 41h121q-9 -71 -56 -111t-131 -40t-130.5 40z" />
    <glyph glyph-name="obreve" unicode="&#x14f;" horiz-adv-x="532" 
d="M36 0zM94.5 56.5q-58.5 68.5 -58.5 194.5q0 125 58.5 193t171.5 68t171.5 -68t58.5 -193q0 -126 -58.5 -194.5t-171.5 -68.5t-171.5 68.5zM337 137q23 35 23 114t-23 113t-71 34t-71 -34t-23 -113t23 -114t71 -35t71 35zM156 617.5q-43 44.5 -52 112.5h101
q4 -31 20.5 -48.5t42.5 -17.5q56 0 63 66h101q-9 -68 -52 -112.5t-112 -44.5t-112 44.5z" />
    <glyph glyph-name="Ohungarumlaut" unicode="&#x150;" horiz-adv-x="652" 
d="M44 0zM161 25q-62 37 -89.5 113.5t-27.5 198.5q0 123 27.5 200.5t89.5 116t165 38.5t165 -38.5t89.5 -116t27.5 -200.5q0 -120 -26.5 -196t-88.5 -114.5t-167 -38.5q-103 0 -165 37zM410.5 130.5q30.5 22.5 43 72t12.5 134.5t-13 135.5t-43.5 75t-83.5 24.5t-83.5 -24.5
t-43.5 -75t-13 -135.5q0 -79 11 -128t41.5 -75t87.5 -26q54 0 84.5 22.5zM158 776l67 197l116 -42l-78 -191zM366 775l67 197l116 -42l-78 -191z" />
    <glyph glyph-name="ohungarumlaut" unicode="&#x151;" horiz-adv-x="532" 
d="M36 0zM94.5 56.5q-58.5 68.5 -58.5 194.5q0 125 58.5 193t171.5 68t171.5 -68t58.5 -193q0 -126 -58.5 -194.5t-171.5 -68.5t-171.5 68.5zM337 137q23 35 23 114t-23 113t-71 34t-71 -34t-23 -113t23 -114t71 -35t71 35zM258 628l117 190l109 -67l-125 -188zM54 628
l117 189l109 -66l-125 -188z" />
    <glyph glyph-name="OE" unicode="&#x152;" horiz-adv-x="902" 
d="M149.5 24q-56.5 36 -80 113.5t-23.5 210.5q0 130 25.5 207t82 112t152.5 35q43 0 117 -12h438v-132h-302v-143h242v-131h-242v-152h302v-132h-436q-77 -12 -119 -12q-100 0 -156.5 36zM423 130v430q-70 6 -111 6q-56 0 -82.5 -28t-34 -77t-7.5 -136q0 -78 11.5 -120.5
t42 -61.5t88.5 -19q25 0 93 6z" />
    <glyph glyph-name="oe" unicode="&#x153;" horiz-adv-x="834" 
d="M36 250q0 128 55 194.5t175 66.5q59 0 97.5 -19t64.5 -62q25 44 62 62.5t91 18.5q218 0 218 -225l-10 -94h-294q1 -42 23.5 -61.5t68.5 -19.5q75 0 166 7l28 2l2 -104q-113 -28 -215 -28q-101 0 -146 68q-48 -68 -164 -68q-222 0 -222 262zM667 295q0 53 -19.5 75
t-66.5 22t-67 -23t-20 -74h173zM339 142q21 33 21 108t-21 107.5t-73 32.5t-73 -32.5t-21 -107.5t21 -108t73 -33t73 33z" />
    <glyph glyph-name="Racute" unicode="&#x154;" horiz-adv-x="620" 
d="M74 0zM74 680h264q240 0 240 -224q0 -133 -100 -196l97 -260h-151l-79 228h-133v-228h-138v680zM340 346q47 0 72 29.5t25 79.5t-26 78.5t-73 28.5h-126v-216h128zM170 839l252 106l41 -120l-260 -79z" />
    <glyph glyph-name="racute" unicode="&#x155;" horiz-adv-x="372" 
d="M48 0zM62 500h133v-53q86 50 160 65v-135q-75 -15 -139 -35l-20 -7v-335h-134v500zM48 651l252 102l40 -115l-262 -74z" />
    <glyph glyph-name="Rcommaaccent" unicode="&#x156;" horiz-adv-x="620" 
d="M74 0zM74 680h264q240 0 240 -224q0 -133 -100 -196l97 -260h-151l-79 228h-133v-228h-138v680zM340 346q47 0 72 29.5t25 79.5t-26 78.5t-73 28.5h-126v-216h128zM257 -77h130l-55 -234h-121z" />
    <glyph glyph-name="rcommaaccent" unicode="&#x157;" horiz-adv-x="372" 
d="M16 0zM62 500h133v-53q86 50 160 65v-135q-75 -15 -139 -35l-20 -7v-335h-134v500zM62 -77h130l-55 -234h-121z" />
    <glyph glyph-name="Rcaron" unicode="&#x158;" horiz-adv-x="620" 
d="M74 0zM74 680h264q240 0 240 -224q0 -133 -100 -196l97 -260h-151l-79 228h-133v-228h-138v680zM340 346q47 0 72 29.5t25 79.5t-26 78.5t-73 28.5h-126v-216h128zM107 914h142l52 -56l49 56h142l-134 -149h-117z" />
    <glyph glyph-name="rcaron" unicode="&#x159;" horiz-adv-x="372" 
d="M5 0zM62 500h133v-53q86 50 160 65v-135q-75 -15 -139 -35l-20 -7v-335h-134v500zM128 731l46 -67l46 67h123l-128 -151h-84l-126 151h123z" />
    <glyph glyph-name="Sacute" unicode="&#x15a;" horiz-adv-x="544" 
d="M37 0zM81 12l-36 7l14 107q134 -18 205 -18q106 0 106 88q0 36 -28 53t-94 36q-79 22 -124.5 49t-66 64t-20.5 92q0 100 61 151t171 51q43 0 89 -5.5t135 -21.5l-11 -109q-137 16 -199 16q-109 0 -109 -72q0 -25 18 -41t45 -26.5t91 -30.5q69 -22 107 -46t55 -59.5
t17 -91.5q0 -105 -63.5 -161t-171.5 -56q-78 0 -191 24zM144 839l252 106l41 -120l-260 -79z" />
    <glyph glyph-name="sacute" unicode="&#x15b;" horiz-adv-x="472" 
d="M36 0zM76 6l-32 6l4 112q121 -16 176 -16q37 0 58.5 8t21.5 30q0 20 -20.5 29t-68.5 17q-18 2 -25 4q-50 9 -82 22.5t-52 43t-20 82.5q0 85 52 126t143 41q54 0 159 -19l33 -6l-2 -111q-121 16 -179 16q-34 0 -53.5 -7t-19.5 -27q0 -21 20 -29.5t65 -16.5l35 -6
q80 -16 114 -47.5t34 -101.5q0 -86 -49 -127t-151 -41q-66 0 -161 18zM91 651l252 102l40 -115l-262 -74z" />
    <glyph glyph-name="Scircumflex" unicode="&#x15c;" horiz-adv-x="544" 
d="M37 0zM81 12l-36 7l14 107q134 -18 205 -18q106 0 106 88q0 36 -28 53t-94 36q-79 22 -124.5 49t-66 64t-20.5 92q0 100 61 151t171 51q43 0 89 -5.5t135 -21.5l-11 -109q-137 16 -199 16q-109 0 -109 -72q0 -25 18 -41t45 -26.5t91 -30.5q69 -22 107 -46t55 -59.5
t17 -91.5q0 -105 -63.5 -161t-171.5 -56q-78 0 -191 24zM218 914h117l134 -149h-142l-49 56l-52 -56h-142z" />
    <glyph glyph-name="scircumflex" unicode="&#x15d;" horiz-adv-x="472" 
d="M36 0zM76 6l-32 6l4 112q121 -16 176 -16q37 0 58.5 8t21.5 30q0 20 -20.5 29t-68.5 17q-18 2 -25 4q-50 9 -82 22.5t-52 43t-20 82.5q0 85 52 126t143 41q54 0 159 -19l33 -6l-2 -111q-121 16 -179 16q-34 0 -53.5 -7t-19.5 -27q0 -21 20 -29.5t65 -16.5l35 -6
q80 -16 114 -47.5t34 -101.5q0 -86 -49 -127t-151 -41q-66 0 -161 18zM194 731h84l128 -151h-123l-46 67l-46 -67h-123z" />
    <glyph glyph-name="Scedilla" unicode="&#x15e;" horiz-adv-x="544" 
d="M454.5 55q-52.5 -55 -143.5 -65v-27q67 -1 95 -20t28 -72q0 -55 -28.5 -83.5t-82.5 -28.5q-42 0 -79 8l-14 3l4 78q21 -1 48 -1q38 0 38 26q0 22 -38 22h-24v93q-75 2 -177 24l-36 7l14 107q134 -18 205 -18q106 0 106 88q0 36 -28 53t-94 36q-79 22 -124.5 49t-66 64
t-20.5 92q0 100 61 151t171 51q43 0 89 -5.5t135 -21.5l-11 -109q-137 16 -199 16q-109 0 -109 -72q0 -25 18 -41t45 -26.5t91 -30.5q69 -22 107 -46t55 -59.5t17 -91.5q0 -95 -52.5 -150z" />
    <glyph glyph-name="scedilla" unicode="&#x15f;" horiz-adv-x="472" 
d="M392.5 33q-44.5 -41 -136.5 -45v-25q67 -1 95 -20t28 -72q0 -55 -28.5 -83.5t-82.5 -28.5q-42 0 -79 8l-14 3l4 78q21 -1 48 -1q38 0 38 26q0 22 -38 22h-24v94q-51 3 -127 17l-32 6l4 112q121 -16 176 -16q37 0 58.5 8t21.5 30q0 20 -20.5 29t-68.5 17q-18 2 -25 4
q-50 9 -82 22.5t-52 43t-20 82.5q0 85 52 126t143 41q54 0 159 -19l33 -6l-2 -111q-121 16 -179 16q-34 0 -53.5 -7t-19.5 -27q0 -21 20 -29.5t65 -16.5l35 -6q80 -16 114 -47.5t34 -101.5q0 -82 -44.5 -123z" />
    <glyph glyph-name="Scaron" unicode="&#x160;" horiz-adv-x="544" 
d="M37 0zM81 12l-36 7l14 107q134 -18 205 -18q106 0 106 88q0 36 -28 53t-94 36q-79 22 -124.5 49t-66 64t-20.5 92q0 100 61 151t171 51q43 0 89 -5.5t135 -21.5l-11 -109q-137 16 -199 16q-109 0 -109 -72q0 -25 18 -41t45 -26.5t91 -30.5q69 -22 107 -46t55 -59.5
t17 -91.5q0 -105 -63.5 -161t-171.5 -56q-78 0 -191 24zM101 914h142l52 -56l49 56h142l-134 -149h-117z" />
    <glyph glyph-name="scaron" unicode="&#x161;" horiz-adv-x="472" 
d="M36 0zM76 6l-32 6l4 112q121 -16 176 -16q37 0 58.5 8t21.5 30q0 20 -20.5 29t-68.5 17q-18 2 -25 4q-50 9 -82 22.5t-52 43t-20 82.5q0 85 52 126t143 41q54 0 159 -19l33 -6l-2 -111q-121 16 -179 16q-34 0 -53.5 -7t-19.5 -27q0 -21 20 -29.5t65 -16.5l35 -6
q80 -16 114 -47.5t34 -101.5q0 -86 -49 -127t-151 -41q-66 0 -161 18zM200 731l46 -67l46 67h123l-128 -151h-84l-126 151h123z" />
    <glyph glyph-name="uni0162" unicode="&#x162;" horiz-adv-x="526" 
d="M291 0v-37q67 -1 95 -20t28 -72q0 -55 -28.5 -83.5t-82.5 -28.5q-42 0 -79 8l-14 3l4 78q21 -1 48 -1q38 0 38 26q0 22 -38 22h-24v105h-43v558h-182v122h500v-122h-180v-558h-42z" />
    <glyph glyph-name="uni0163" unicode="&#x163;" horiz-adv-x="364" 
d="M256 -57q28 -19 28 -72q0 -55 -28.5 -83.5t-82.5 -28.5q-42 0 -79 8l-14 3l4 78q21 -1 48 -1q38 0 38 26q0 22 -38 22h-24v106h44q-38 17 -54 58.5t-16 118.5v208h-59v114h59v139h134v-139h123v-114h-123v-205q0 -39 7 -56.5t35 -16.5l76 2l6 -107q-40 -9 -62.5 -12
t-45.5 -3q-44 0 -71 10v-35q67 -1 95 -20z" />
    <glyph glyph-name="Tcaron" unicode="&#x164;" horiz-adv-x="526" 
d="M13 0zM195 558h-182v122h500v-122h-180v-558h-138v558zM72 914h142l52 -56l49 56h142l-134 -149h-117z" />
    <glyph glyph-name="tcaron" unicode="&#x165;" horiz-adv-x="487" 
d="M376 690h130v-260h-130v260zM142 6q-32 18 -46 59t-14 113v208h-59v114h59v139h134v-139h123v-114h-123v-205q0 -39 7 -56.5t35 -16.5l76 2l6 -107q-40 -9 -62.5 -12t-45.5 -3q-58 0 -90 18z" />
    <glyph glyph-name="Tbar" unicode="&#x166;" horiz-adv-x="528" 
d="M196 253h-132v116h132v189h-182v122h500v-122h-180v-189h139v-116h-139v-253h-138v253z" />
    <glyph glyph-name="tbar" unicode="&#x167;" horiz-adv-x="365" 
d="M143.5 5.5q-33.5 17.5 -47.5 58t-14 114.5v31h-30v100h30v69h-59v121h59v140h134v-140h123v-121h-123v-69h95v-100h-95v-20q0 -40 7 -56.5t35 -16.5l76 2l6 -115q-67 -15 -102 -15q-61 0 -94.5 17.5z" />
    <glyph glyph-name="Utilde" unicode="&#x168;" horiz-adv-x="654" 
d="M68 0zM132 47q-64 59 -64 183v450h138v-453q0 -119 121 -119t121 119v453h138v-450q0 -124 -64 -183t-195 -59t-195 59zM315 780q-66 23 -77 23q-24 0 -67 -32l-14 -10l-29 96q22 26 53.5 45t59.5 19q27 0 90 -23t72 -23q23 0 67 32l14 10l29 -97q-17 -19 -49 -41
t-60 -22q-25 0 -89 23z" />
    <glyph glyph-name="utilde" unicode="&#x169;" horiz-adv-x="553" 
d="M57 0zM123.5 14q-36.5 26 -51.5 80t-15 144v262h134v-264q0 -54 5 -80.5t20.5 -37t47.5 -10.5q23 0 41.5 4t51.5 14v374h134v-500h-133v28q-42 -23 -71.5 -31.5t-62.5 -8.5q-64 0 -100.5 26zM266 603q-46 18 -59 18q-28 0 -66 -23l-13 -8l-29 75q21 24 51.5 42t52.5 18
q23 0 69 -18q47 -18 58 -18q25 0 66 25l14 9l29 -76q-16 -20 -47.5 -41t-56.5 -21q-22 0 -69 18z" />
    <glyph glyph-name="Umacron" unicode="&#x16a;" horiz-adv-x="654" 
d="M68 0zM132 47q-64 59 -64 183v450h138v-453q0 -119 121 -119t121 119v453h138v-450q0 -124 -64 -183t-195 -59t-195 59zM157 880h347v-98h-347v98z" />
    <glyph glyph-name="umacron" unicode="&#x16b;" horiz-adv-x="553" 
d="M57 0zM123.5 14q-36.5 26 -51.5 80t-15 144v262h134v-264q0 -54 5 -80.5t20.5 -37t47.5 -10.5q23 0 41.5 4t51.5 14v374h134v-500h-133v28q-42 -23 -71.5 -31.5t-62.5 -8.5q-64 0 -100.5 26zM133 697h287v-100h-287v100z" />
    <glyph glyph-name="Ubreve" unicode="&#x16c;" horiz-adv-x="654" 
d="M68 0zM132 47q-64 59 -64 183v450h138v-453q0 -119 121 -119t121 119v453h138v-450q0 -124 -64 -183t-195 -59t-195 59zM200.5 799q-46.5 40 -55.5 111h121q4 -25 21.5 -41t44.5 -16t44.5 16t20.5 41h121q-9 -71 -56 -111t-131 -40t-130.5 40z" />
    <glyph glyph-name="ubreve" unicode="&#x16d;" horiz-adv-x="553" 
d="M57 0zM123.5 14q-36.5 26 -51.5 80t-15 144v262h134v-264q0 -54 5 -80.5t20.5 -37t47.5 -10.5q23 0 41.5 4t51.5 14v374h134v-500h-133v28q-42 -23 -71.5 -31.5t-62.5 -8.5q-64 0 -100.5 26zM164 617.5q-43 44.5 -52 112.5h101q4 -31 20.5 -48.5t42.5 -17.5q56 0 63 66
h101q-9 -68 -52 -112.5t-112 -44.5t-112 44.5z" />
    <glyph glyph-name="Uring" unicode="&#x16e;" horiz-adv-x="654" 
d="M68 0zM132 47q-64 59 -64 183v450h138v-453q0 -119 121 -119t121 119v453h138v-450q0 -124 -64 -183t-195 -59t-195 59zM223.5 746.5q-42.5 33.5 -42.5 92.5t42.5 92.5t107.5 33.5t107.5 -33.5t42.5 -92.5t-42.5 -92.5t-107.5 -33.5t-107.5 33.5zM373.5 809
q16.5 11 16.5 30q0 20 -16.5 30.5t-42.5 10.5t-42.5 -10.5t-16.5 -30.5q0 -19 16.5 -30t42.5 -11t42.5 11z" />
    <glyph glyph-name="uring" unicode="&#x16f;" horiz-adv-x="553" 
d="M57 0zM123.5 14q-36.5 26 -51.5 80t-15 144v262h134v-264q0 -54 5 -80.5t20.5 -37t47.5 -10.5q23 0 41.5 4t51.5 14v374h134v-500h-133v28q-42 -23 -71.5 -31.5t-62.5 -8.5q-64 0 -100.5 26zM193 555q-34 34 -34 83q0 50 34 83.5t83 33.5q50 0 83.5 -33.5t33.5 -83.5
q0 -49 -33.5 -83t-83.5 -34q-49 0 -83 34zM308.5 606q12.5 13 12.5 32q0 20 -12.5 32.5t-32.5 12.5q-19 0 -32 -12.5t-13 -32.5q0 -19 13 -32t32 -13q20 0 32.5 13z" />
    <glyph glyph-name="Uhungarumlaut" unicode="&#x170;" horiz-adv-x="654" 
d="M68 0zM132 47q-64 59 -64 183v450h138v-453q0 -119 121 -119t121 119v453h138v-450q0 -124 -64 -183t-195 -59t-195 59zM153 776l67 197l116 -42l-78 -191zM361 775l67 197l116 -42l-78 -191z" />
    <glyph glyph-name="uhungarumlaut" unicode="&#x171;" horiz-adv-x="553" 
d="M57 0zM123.5 14q-36.5 26 -51.5 80t-15 144v262h134v-264q0 -54 5 -80.5t20.5 -37t47.5 -10.5q23 0 41.5 4t51.5 14v374h134v-500h-133v28q-42 -23 -71.5 -31.5t-62.5 -8.5q-64 0 -100.5 26zM300 628l117 190l109 -67l-125 -188zM96 628l117 189l109 -66l-125 -188z" />
    <glyph glyph-name="Uogonek" unicode="&#x172;" horiz-adv-x="654" 
d="M586 680v-450q0 -100 -41 -157t-125 -76q-53 -43 -53 -77t32 -34l42 4l12 -95q-61 -11 -104 -11q-46 0 -76.5 26t-30.5 66q0 33 15.5 63t36.5 50q-114 7 -170 66t-56 175v450h138v-453q0 -119 121 -119t121 119v453h138z" />
    <glyph glyph-name="uogonek" unicode="&#x173;" horiz-adv-x="553" 
d="M506 -205q-61 -11 -104 -11q-46 0 -76.5 26t-30.5 66q0 37 19 70t42 50l5 4h-3v28q-42 -23 -71.5 -31.5t-62.5 -8.5q-64 0 -100.5 26t-51.5 80t-15 144v262h134v-264q0 -54 5 -80.5t20.5 -37t47.5 -10.5q23 0 41.5 4t51.5 14v374h134v-500h-14q-57 -47 -57 -80
q0 -34 32 -34l42 4z" />
    <glyph glyph-name="Wcircumflex" unicode="&#x174;" horiz-adv-x="930" 
d="M19 0zM19 680h145l84 -562h15l122 562h160l122 -562h15l84 562h145l-130 -680h-209l-107 517l-107 -517h-209zM407 914h117l134 -149h-142l-49 56l-52 -56h-142z" />
    <glyph glyph-name="wcircumflex" unicode="&#x175;" horiz-adv-x="772" 
d="M24 0zM24 500h132l61 -386h24l76 376h138l76 -376h24l61 386h132l-95 -500h-210l-57 306l-57 -306h-210zM345 731h84l128 -151h-123l-46 67l-46 -67h-123z" />
    <glyph glyph-name="Ycircumflex" unicode="&#x176;" horiz-adv-x="557" 
d="M0 0zM210 275l-210 405h153l125 -271l125 271h153l-208 -405v-275h-138v275zM222 914h117l134 -149h-142l-49 56l-52 -56h-142z" />
    <glyph glyph-name="ycircumflex" unicode="&#x177;" horiz-adv-x="500" 
d="M16 0zM233 0h-94l-123 500h132l91 -386h23l91 386h132l-176 -710h-131zM208 731h84l128 -151h-123l-46 67l-46 -67h-123z" />
    <glyph glyph-name="Ydieresis" unicode="&#x178;" horiz-adv-x="557" 
d="M0 0zM210 275l-210 405h153l125 -271l125 271h153l-208 -405v-275h-138v275zM105 896h128v-132h-128v132zM321 896h128v-132h-128v132z" />
    <glyph glyph-name="Zacute" unicode="&#x179;" horiz-adv-x="532" 
d="M41 0zM41 119l284 423v18h-284v120h450v-120l-284 -422v-18h284v-120h-450v119zM121 839l252 106l41 -120l-260 -79z" />
    <glyph glyph-name="zacute" unicode="&#x17a;" horiz-adv-x="454" 
d="M41 0zM41 120l210 260h-210v120h371v-120l-210 -260h210v-120h-371v120zM82 651l252 102l40 -115l-262 -74z" />
    <glyph glyph-name="Zdotaccent" unicode="&#x17b;" horiz-adv-x="532" 
d="M41 0zM41 119l284 423v18h-284v120h450v-120l-284 -422v-18h284v-120h-450v119zM199 902h134v-135h-134v135z" />
    <glyph glyph-name="zdotaccent" unicode="&#x17c;" horiz-adv-x="454" 
d="M41 0zM41 120l210 260h-210v120h371v-120l-210 -260h210v-120h-371v120zM159 691h134v-135h-134v135z" />
    <glyph glyph-name="Zcaron" unicode="&#x17d;" horiz-adv-x="532" 
d="M41 0zM41 119l284 423v18h-284v120h450v-120l-284 -422v-18h284v-120h-450v119zM76 914h142l52 -56l49 56h142l-134 -149h-117z" />
    <glyph glyph-name="zcaron" unicode="&#x17e;" horiz-adv-x="454" 
d="M41 0zM41 120l210 260h-210v120h371v-120l-210 -260h210v-120h-371v120zM191 731l46 -67l46 67h123l-128 -151h-84l-126 151h123z" />
    <glyph glyph-name="florin" unicode="&#x192;" 
d="M60 -220l-16 3v110q65 -3 92 -3q51 0 51 66v430h-54v114h54v24q0 73 13.5 113t44.5 57.5t88 17.5q38 0 91 -10l21 -3v-109q-58 2 -74 2q-29 0 -39.5 -15t-10.5 -54v-23h121v-114h-121v-433q0 -69 -17 -108.5t-53.5 -57t-97.5 -17.5q-53 0 -93 10z" />
    <glyph glyph-name="Aringacute" unicode="&#x1fa;" horiz-adv-x="602" 
d="M17 0zM142 939l252 106l41 -120l-260 -79zM420 123h-238l-27 -123h-138l149 661q-15 26 -15 60q0 59 42.5 92.5t107.5 33.5t107.5 -33.5t42.5 -92.5q0 -34 -15 -60l149 -661h-138zM258.5 751.5q-16.5 -10.5 -16.5 -30.5q0 -19 16.5 -30t42.5 -11t42.5 11t16.5 30
q0 20 -16.5 30.5t-42.5 10.5t-42.5 -10.5zM208 243h186l-69 323h-48z" />
    <glyph glyph-name="aringacute" unicode="&#x1fb;" horiz-adv-x="511" 
d="M29 0zM108 852l252 102l40 -115l-262 -74zM29 152q0 78 41.5 112.5t133.5 40.5l107 8v31q0 30 -13.5 42t-45.5 12q-33 0 -91 -2.5t-97 -5.5l-4 93q108 29 204 29t138.5 -40t42.5 -128v-208q2 -25 8.5 -34t24.5 -13l-4 -101q-52 0 -82.5 7t-60.5 28q-73 -35 -147 -35
q-155 0 -155 164zM296 109l15 4v107l-91 -8q-56 -5 -56 -60t49 -55q38 0 83 12zM182 555q-34 34 -34 83q0 50 34 83.5t83 33.5q50 0 83.5 -33.5t33.5 -83.5q0 -49 -33.5 -83t-83.5 -34q-49 0 -83 34zM297.5 606q12.5 13 12.5 32q0 20 -12.5 32.5t-32.5 12.5q-19 0 -32 -12.5
t-13 -32.5q0 -19 13 -32t32 -13q20 0 32.5 13z" />
    <glyph glyph-name="AEacute" unicode="&#x1fc;" horiz-adv-x="871" 
d="M12 0zM196 690h634v-132h-302v-143h242v-131h-242v-152h302v-132h-438v116h-213l-29 -116h-138zM392 249l1 309h-100l-80 -309h179zM365 839l252 106l41 -120l-260 -79z" />
    <glyph glyph-name="aeacute" unicode="&#x1fd;" horiz-adv-x="784" 
d="M29 0zM67.5 31q-38.5 43 -38.5 123q0 76 42.5 111.5t131.5 40.5l108 7v25q0 21 -14.5 33t-40.5 12q-66 0 -157 -8l-32 -3l-4 117q131 22 213 22q79 0 122 -37q52 37 133 37q218 0 218 -225l-10 -94h-294q1 -42 23.5 -61.5t68.5 -19.5q75 0 166 7l28 2l2 -104
q-113 -28 -212 -28q-98 0 -149 48l-23 -11q-83 -37 -164 -37q-79 0 -117.5 43zM617 295q0 53 -19.5 75t-66.5 22t-66.5 -22.5t-19.5 -74.5h172zM311 118l-1 93l-90 -4q-56 -3 -56 -51q0 -53 41 -53q36 0 106 15zM256 651l252 102l40 -115l-262 -74z" />
    <glyph glyph-name="Oslashacute" unicode="&#x1fe;" horiz-adv-x="652" 
d="M44 0zM74 -78l58 124q-88 78 -88 290q0 123 27.5 201t89.5 116.5t165 38.5q57 0 101 -12l61 130l100 -43l-65 -140q85 -82 85 -291q0 -122 -27.5 -198t-89.5 -113t-165 -37q-52 0 -96 10l-58 -125zM374 565q-22 7 -48 7q-77 0 -108.5 -53.5t-31.5 -166.5q0 -108 15 -158z
M435 158.5q31 50.5 31 160.5q0 105 -14 156l-169 -363q15 -4 43 -4q78 0 109 50.5zM170 839l252 106l41 -120l-260 -79z" />
    <glyph glyph-name="oslashacute" unicode="&#x1ff;" horiz-adv-x="532" 
d="M36 0zM82 -78l43 103q-89 60 -89 226q0 128 55 194.5t175 66.5q24 0 56 -5l40 100l81 -30l-41 -98q94 -58 94 -228q0 -263 -230 -263q-34 0 -63 6l-41 -102zM279 397l-13 1q-52 0 -73 -34t-21 -106q0 -70 12 -102zM339 136.5q21 34.5 21 108.5q0 69 -14 105l-100 -247
q4 -1 20 -1q52 0 73 34.5zM121 651l252 102l40 -115l-262 -74z" />
    <glyph glyph-name="Scommaaccent" unicode="&#x218;" horiz-adv-x="544" 
d="M37 0zM81 12l-36 7l14 107q134 -18 205 -18q106 0 106 88q0 36 -28 53t-94 36q-79 22 -124.5 49t-66 64t-20.5 92q0 100 61 151t171 51q43 0 89 -5.5t135 -21.5l-11 -109q-137 16 -199 16q-109 0 -109 -72q0 -25 18 -41t45 -26.5t91 -30.5q69 -22 107 -46t55 -59.5
t17 -91.5q0 -105 -63.5 -161t-171.5 -56q-78 0 -191 24zM215 -77h130l-55 -234h-121z" />
    <glyph glyph-name="scommaaccent" unicode="&#x219;" horiz-adv-x="472" 
d="M0 0zM76 6l-32 6l4 112q121 -16 176 -16q37 0 58.5 8t21.5 30q0 20 -20.5 29t-68.5 17q-18 2 -25 4q-50 9 -82 22.5t-52 43t-20 82.5q0 85 52 126t143 41q54 0 159 -19l33 -6l-2 -111q-121 16 -179 16q-34 0 -53.5 -7t-19.5 -27q0 -21 20 -29.5t65 -16.5l35 -6
q80 -16 114 -47.5t34 -101.5q0 -86 -49 -127t-151 -41q-66 0 -161 18zM29 -77h130l-55 -234h-121z" />
    <glyph glyph-name="uni021A" unicode="&#x21a;" horiz-adv-x="526" 
d="M13 0zM195 558h-182v122h500v-122h-180v-558h-138v558zM223 -77h130l-55 -234h-121z" />
    <glyph glyph-name="uni021B" unicode="&#x21b;" horiz-adv-x="364" 
d="M3 0zM142 6q-32 18 -46 59t-14 113v208h-59v114h59v139h134v-139h123v-114h-123v-205q0 -39 7 -56.5t35 -16.5l76 2l6 -107q-40 -9 -62.5 -12t-45.5 -3q-58 0 -90 18zM49 -77h130l-55 -234h-121z" />
    <glyph glyph-name="circumflex" unicode="&#x2c6;" horiz-adv-x="268" 
d="M102 731h84l128 -151h-123l-46 67l-46 -67h-123z" />
    <glyph glyph-name="caron" unicode="&#x2c7;" horiz-adv-x="268" 
d="M103 731l46 -67l46 67h123l-128 -151h-84l-126 151h123z" />
    <glyph glyph-name="breve" unicode="&#x2d8;" horiz-adv-x="268" 
d="M32 617.5q-43 44.5 -52 112.5h101q4 -31 20.5 -48.5t42.5 -17.5q56 0 63 66h101q-9 -68 -52 -112.5t-112 -44.5t-112 44.5z" />
    <glyph glyph-name="dotaccent" unicode="&#x2d9;" horiz-adv-x="268" 
d="M67 691h134v-135h-134v135z" />
    <glyph glyph-name="ring" unicode="&#x2da;" horiz-adv-x="268" 
d="M54 555q-34 34 -34 83q0 50 34 83.5t83 33.5q50 0 83.5 -33.5t33.5 -83.5q0 -49 -33.5 -83t-83.5 -34q-49 0 -83 34zM169.5 606q12.5 13 12.5 32q0 20 -12.5 32.5t-32.5 12.5q-19 0 -32 -12.5t-13 -32.5q0 -19 13 -32t32 -13q20 0 32.5 13z" />
    <glyph glyph-name="ogonek" unicode="&#x2db;" horiz-adv-x="474" 
d="M249.5 -190q-30.5 26 -30.5 66q0 37 19 70t42 50l20 15l102 -10q-58 -46 -58 -81q0 -34 32 -34l42 4l12 -95q-61 -11 -104 -11q-46 0 -76.5 26z" />
    <glyph glyph-name="tilde" unicode="&#x2dc;" horiz-adv-x="268" 
d="M145 603q-46 18 -59 18q-28 0 -66 -23l-13 -8l-29 75q21 24 51.5 42t52.5 18q23 0 69 -18q47 -18 58 -18q25 0 66 25l14 9l29 -76q-16 -20 -47.5 -41t-56.5 -21q-22 0 -69 18z" />
    <glyph glyph-name="hungarumlaut" unicode="&#x2dd;" horiz-adv-x="268" 
d="M154 628l117 190l109 -67l-125 -188zM-50 628l117 189l109 -66l-125 -188z" />
    <glyph glyph-name="pi" unicode="&#x3c0;" 
d="M391 3.5q-42 13.5 -56.5 47t-14.5 103.5v232h-85l-26 -386h-135l32 386q-34 0 -73 -10l-15 -3v109q64 18 150 18h251q51 0 95 9l14 3v-110q-25 -11 -74 -14v-234q0 -28 14.5 -39t54.5 -11v-114q-90 0 -132 13.5z" />
    <glyph glyph-name="uni060C" unicode="&#x60c;" horiz-adv-x="263" 
d="M135 137h108l-50 -260h-148z" />
    <glyph glyph-name="uni0615" unicode="&#x615;" horiz-adv-x="0" 
d="M206 934q25 -24 25 -68v-96h-231v58h9v211h50v-144q17 30 40.5 46.5t49.5 16.5q32 0 57 -24zM82.5 881.5q-23.5 -23.5 -23.5 -48.5v-5h125v38q0 17 -13 28t-34 11q-31 0 -54.5 -23.5z" />
    <glyph glyph-name="uni061B" unicode="&#x61b;" horiz-adv-x="279" 
d="M144 578h108l-50 -260h-148zM66 166h144v-166h-144v166z" />
    <glyph glyph-name="uni061F" unicode="&#x61f;" horiz-adv-x="437" 
d="M189 217v31q0 28 -17 49.5t-59 52.5q-35 26 -51.5 48.5t-23 53t-6.5 84.5q0 156 193 156q95 0 182 -35l-7 -101q-85 16 -144 16q-85 0 -85 -59q0 -22 10 -39.5t26.5 -32.5t55.5 -46q64 -51 64 -87q0 -57 -31 -91h-107zM174 0v161h144v-161h-144z" />
    <glyph glyph-name="uni0621" unicode="&#x621;" horiz-adv-x="530" 
d="M497 84l-429 -84l-20 85l96 25q-31 30 -47 68t-16 78q0 50 23.5 94.5t66.5 71.5t99 27q45 0 87.5 -15t61.5 -29l-21 -94q-15 8 -36.5 14.5t-43.5 6.5q-49 0 -79.5 -33t-30.5 -77q0 -51 39 -86l224 58z" />
    <glyph glyph-name="uni0622" unicode="&#x622;" horiz-adv-x="304" 
d="M11 0zM80 614h134v-614h-134v614zM183.5 682.5q-21.5 7.5 -39.5 14.5q-45 21 -55 21q-9 0 -23 -11.5t-17 -13.5l-15 -14l-23 76q18 19 39 32t42 13q20 0 73 -23q46 -20 52 -20q10 0 38 24l14 14l24 -77q-40 -43 -76 -43q-12 0 -33.5 7.5z" />
    <glyph glyph-name="uni0623" unicode="&#x623;" horiz-adv-x="304" 
d="M27 0zM80 614h134v-614h-134v614zM257 711l-219 -43l-11 47l46 12q-39 33 -39 81q0 41 29.5 71t75.5 30q39 0 78 -24l-13 -60q-6 5 -17 9.5t-25 4.5q-23 0 -37.5 -15t-14.5 -36q0 -28 24 -45l109 29z" />
    <glyph glyph-name="uni0624" unicode="&#x624;" horiz-adv-x="552" 
d="M41 0zM393 512.5q65 -7.5 109 -17.5v-407q0 -82 -12.5 -153.5t-59 -127t-139.5 -55.5q-54 0 -174 19v121q120 -18 162 -18q32 0 50 11t26.5 38t8.5 77h-116q-207 0 -207 234q0 119 26.5 181t75 83.5t127.5 21.5q58 0 123 -7.5zM197 156.5q22 -34.5 88 -34.5h83v271
q-38 5 -73 5q-42 0 -67 -11.5t-39 -45t-14 -99.5q0 -51 22 -85.5zM403 658l-219 -43l-11 47l46 12q-39 33 -39 81q0 41 29.5 71t75.5 30q39 0 78 -24l-13 -60q-6 5 -17 9.5t-25 4.5q-23 0 -37.5 -15t-14.5 -36q0 -28 24 -45l109 29z" />
    <glyph glyph-name="uni0625" unicode="&#x625;" horiz-adv-x="304" 
d="M32 0zM80 700h134v-700h-134v700zM262 -255l-219 -43l-11 47l46 12q-39 33 -39 81q0 41 29.5 71t75.5 30q39 0 78 -24l-13 -60q-6 5 -17 9.5t-25 4.5q-23 0 -37.5 -15t-14.5 -36q0 -28 24 -45l109 29z" />
    <glyph glyph-name="uni0626" unicode="&#x626;" horiz-adv-x="908" 
d="M40 0zM197 -222q-68 26 -112.5 80t-44.5 132q0 35 8.5 93t18.5 107l125 -20q-7 -42 -12.5 -90.5t-5.5 -69.5q0 -38 19.5 -69t54.5 -49t81 -18h276q55 0 80.5 28.5t25.5 101.5q0 36 -28 53t-94 36q-79 22 -124.5 49t-66 64t-20.5 92q0 100 61 151t171 51q43 0 89 -5.5
t135 -21.5l-11 -109q-137 16 -199 16q-109 0 -109 -72q0 -25 18 -41t45 -26.5t91 -30.5q69 -22 107 -46t55 -59.5t17 -91.5q0 -135 -62 -198t-173 -63h-279q-69 0 -137 26zM285 326l-219 -43l-11 47l46 12q-39 33 -39 81q0 41 29.5 71t75.5 30q39 0 78 -24l-13 -60
q-6 5 -17 9.5t-25 4.5q-23 0 -37.5 -15t-14.5 -36q0 -28 24 -45l109 29z" />
    <glyph glyph-name="uni0627" unicode="&#x627;" horiz-adv-x="304" 
d="M80 700h134v-700h-134v700z" />
    <glyph glyph-name="uni0628" unicode="&#x628;" horiz-adv-x="842" 
d="M54 0zM772 500v-500h-432q-87 0 -147.5 13t-99.5 55t-39 125q0 43 9.5 98.5t21.5 101.5l108 -6l-7 -63q-10 -73 -10 -100q0 -102 148 -102h314v378h134zM359 -80h123v-130h-123v130z" />
    <glyph glyph-name="uni0629" unicode="&#x629;" horiz-adv-x="607" 
d="M40 0zM447 506q78 -4 110 -9v-497h-249q-99 0 -156 21t-84.5 76.5t-27.5 161.5q0 101 26 154.5t84 75t163 21.5q56 0 134 -4zM188.5 173.5q14.5 -29.5 44.5 -40.5t82 -11h108v261q-50 5 -105 5t-85.5 -11t-44.5 -38.5t-14 -79.5q0 -56 14.5 -85.5zM197 718h103v-125h-103
v125zM349 718h103v-125h-103v125z" />
    <glyph glyph-name="uni062A" unicode="&#x62a;" horiz-adv-x="842" 
d="M54 0zM772 500v-500h-432q-87 0 -147.5 13t-99.5 55t-39 125q0 43 9.5 98.5t21.5 101.5l108 -6l-7 -63q-10 -73 -10 -100q0 -102 148 -102h314v378h134zM293 625h103v-125h-103v125zM445 625h103v-125h-103v125z" />
    <glyph glyph-name="uni062B" unicode="&#x62b;" horiz-adv-x="842" 
d="M54 0zM772 500v-500h-432q-87 0 -147.5 13t-99.5 55t-39 125q0 43 9.5 98.5t21.5 101.5l108 -6l-7 -63q-10 -73 -10 -100q0 -102 148 -102h314v378h134zM373 758h96v-112h-96v112zM293 620h103v-120h-103v120zM445 620h103v-120h-103v120z" />
    <glyph glyph-name="uni062C" unicode="&#x62c;" horiz-adv-x="593" 
d="M40 0zM202.5 -6.5q-28.5 -26.5 -28.5 -77.5t30.5 -81.5t92.5 -30.5q27 0 80 5t108 14l15 -102q-49 -14 -115 -25.5t-115 -11.5q-110 0 -170 64.5t-60 176.5q0 103 53.5 157.5t158.5 54.5q40 0 79.5 -6.5t67.5 -15.5v195q0 43 -18.5 64.5t-63.5 21.5q-92 -3 -160 -6
l-51 -2l-4 89q52 14 126 23.5t125 9.5q94 0 136.5 -39.5t43.5 -125.5v-345h-134q-26 8 -59 14t-59 6q-50 0 -78.5 -26.5zM276 -30h103v-120h-103v120z" />
    <glyph glyph-name="uni062D" unicode="&#x62d;" horiz-adv-x="593" 
d="M202.5 -6.5q-28.5 -26.5 -28.5 -77.5t30.5 -81.5t92.5 -30.5q27 0 80 5t108 14l15 -102q-49 -14 -115 -25.5t-115 -11.5q-110 0 -170 64.5t-60 176.5q0 103 53.5 157.5t158.5 54.5q40 0 79.5 -6.5t67.5 -15.5v195q0 43 -18.5 64.5t-63.5 21.5q-92 -3 -160 -6l-51 -2
l-4 89q52 14 126 23.5t125 9.5q94 0 136.5 -39.5t43.5 -125.5v-345h-134q-26 8 -59 14t-59 6q-50 0 -78.5 -26.5z" />
    <glyph glyph-name="uni062E" unicode="&#x62e;" horiz-adv-x="593" 
d="M40 0zM202.5 -6.5q-28.5 -26.5 -28.5 -77.5t30.5 -81.5t92.5 -30.5q27 0 80 5t108 14l15 -102q-49 -14 -115 -25.5t-115 -11.5q-110 0 -170 64.5t-60 176.5q0 103 53.5 157.5t158.5 54.5q40 0 79.5 -6.5t67.5 -15.5v195q0 43 -18.5 64.5t-63.5 21.5q-92 -3 -160 -6
l-51 -2l-4 89q52 14 126 23.5t125 9.5q94 0 136.5 -39.5t43.5 -125.5v-345h-134q-26 8 -59 14t-59 6q-50 0 -78.5 -26.5zM242 723h123v-130h-123v130z" />
    <glyph glyph-name="uni062F" unicode="&#x62f;" horiz-adv-x="525" 
d="M367.5 483.5q60.5 -39.5 94 -118.5t33.5 -194v-171h-455v122h321v36q0 130 -49 185.5t-117 55.5h-101l-10 105q31 7 70.5 13t72.5 6q80 0 140.5 -39.5z" />
    <glyph glyph-name="uni0630" unicode="&#x630;" horiz-adv-x="525" 
d="M40 0zM367.5 483.5q60.5 -39.5 94 -118.5t33.5 -194v-171h-455v122h321v36q0 130 -49 185.5t-117 55.5h-101l-10 105q31 7 70.5 13t72.5 6q80 0 140.5 -39.5zM118 750h123v-130h-123v130z" />
    <glyph glyph-name="uni0631" unicode="&#x631;" horiz-adv-x="340" 
d="M40 -244v120l34 -2q36 0 54 28.5t18 80.5v517h134v-494q0 -120 -41.5 -187t-125.5 -67q-13 0 -73 4z" />
    <glyph glyph-name="uni0632" unicode="&#x632;" horiz-adv-x="340" 
d="M40 0zM40 -244v120l34 -2q36 0 54 28.5t18 80.5v517h134v-494q0 -120 -41.5 -187t-125.5 -67q-13 0 -73 4zM151 723h123v-130h-123v130z" />
    <glyph glyph-name="uni0633" unicode="&#x633;" horiz-adv-x="1183" 
d="M1114.5 371q8.5 -66 8.5 -93v-278h-206q-33 0 -63.5 11t-49.5 26q-40 -37 -100 -37h-92v-40q0 -50 -30.5 -97.5t-95.5 -79t-163 -31.5q-109 0 -172 38t-87 91t-24 105q0 68 44 293l127 -7q-41 -216 -41 -266q0 -30 15 -60t49.5 -50.5t88.5 -20.5q49 0 84 17t53 45.5
t18 60.5v452h134v-328h46q38 0 58.5 30.5t20.5 78.5v219h134v-219q0 -51 -10 -91q9 -7 23.5 -12.5t29.5 -5.5h75v137q0 64 -2 108.5t-9 128.5l117 5q11 -64 19.5 -130z" />
    <glyph glyph-name="uni0634" unicode="&#x634;" horiz-adv-x="1183" 
d="M40 0zM1114.5 371q8.5 -66 8.5 -93v-278h-206q-33 0 -63.5 11t-49.5 26q-40 -37 -100 -37h-92v-40q0 -50 -30.5 -97.5t-95.5 -79t-163 -31.5q-109 0 -172 38t-87 91t-24 105q0 68 44 293l127 -7q-41 -216 -41 -266q0 -30 15 -60t49.5 -50.5t88.5 -20.5q49 0 84 17
t53 45.5t18 60.5v452h134v-328h46q38 0 58.5 30.5t20.5 78.5v219h134v-219q0 -51 -10 -91q9 -7 23.5 -12.5t29.5 -5.5h75v137q0 64 -2 108.5t-9 128.5l117 5q11 -64 19.5 -130zM758 851h96v-112h-96v112zM678 713h103v-120h-103v120zM830 713h103v-120h-103v120z" />
    <glyph glyph-name="uni0635" unicode="&#x635;" horiz-adv-x="1183" 
d="M1123 0h-511v-40q0 -50 -30.5 -97.5t-95 -79t-162.5 -31.5q-109 0 -172.5 38t-87.5 90t-24 101q0 38 13.5 126t30.5 172l128 -7q-42 -222 -42 -266q0 -30 15 -60.5t49.5 -51t88.5 -20.5q49 0 84 17.5t53 46t18 60.5v502h134v-160q45 56 81.5 91t85.5 57t113 22
q126 0 178.5 -77.5t52.5 -181.5v-251zM722.5 321.5q-67.5 -66.5 -110.5 -153.5v-46h377v103q0 68 -33.5 115.5t-94.5 47.5q-71 0 -138.5 -66.5z" />
    <glyph glyph-name="uni0636" unicode="&#x636;" horiz-adv-x="1183" 
d="M40 0zM1123 0h-511v-40q0 -50 -30.5 -97.5t-95 -79t-162.5 -31.5q-109 0 -172.5 38t-87.5 90t-24 101q0 38 13.5 126t30.5 172l128 -7q-42 -222 -42 -266q0 -30 15 -60.5t49.5 -51t88.5 -20.5q49 0 84 17.5t53 46t18 60.5v502h134v-160q45 56 81.5 91t85.5 57t113 22
q126 0 178.5 -77.5t52.5 -181.5v-251zM722.5 321.5q-67.5 -66.5 -110.5 -153.5v-46h377v103q0 68 -33.5 115.5t-94.5 47.5q-71 0 -138.5 -66.5zM759 723h123v-130h-123v130z" />
    <glyph glyph-name="uni0637" unicode="&#x637;" horiz-adv-x="769" 
d="M656.5 432.5q52.5 -77.5 52.5 -181.5v-251h-699v122h54v578h134v-360q45 56 81.5 91t85.5 57t113 22q126 0 178.5 -77.5zM308.5 321.5q-67.5 -66.5 -110.5 -153.5v-46h377v103q0 68 -33.5 115.5t-94.5 47.5q-71 0 -138.5 -66.5z" />
    <glyph glyph-name="uni0638" unicode="&#x638;" horiz-adv-x="769" 
d="M10 0zM656.5 432.5q52.5 -77.5 52.5 -181.5v-251h-699v122h54v578h134v-360q45 56 81.5 91t85.5 57t113 22q126 0 178.5 -77.5zM308.5 321.5q-67.5 -66.5 -110.5 -153.5v-46h377v103q0 68 -33.5 115.5t-94.5 47.5q-71 0 -138.5 -66.5zM318 723h123v-130h-123v130z" />
    <glyph glyph-name="uni0639" unicode="&#x639;" horiz-adv-x="539" 
d="M368 -192q47 4 97 12l14 -104q-50 -13 -108 -22.5t-101 -9.5q-110 0 -170 64.5t-60 176.5q0 141 97 189q-37 71 -37 151q0 88 37.5 143.5t92.5 79.5t109 24q30 0 68.5 -7t73.5 -20l-6 -125q-77 30 -124 30q-46 0 -81.5 -30t-35.5 -101q0 -74 44 -123q38 -1 78 -7.5
t60 -13.5v-115q-23 7 -65.5 13.5t-69.5 6.5q-50 0 -78.5 -26.5t-28.5 -77.5t30.5 -81.5t92.5 -30.5q24 0 71 4z" />
    <glyph glyph-name="uni063A" unicode="&#x63a;" horiz-adv-x="539" 
d="M40 0zM368 -192q47 4 97 12l14 -104q-50 -13 -108 -22.5t-101 -9.5q-110 0 -170 64.5t-60 176.5q0 141 97 189q-37 71 -37 151q0 88 37.5 143.5t92.5 79.5t109 24q30 0 68.5 -7t73.5 -20l-6 -125q-77 30 -124 30q-46 0 -81.5 -30t-35.5 -101q0 -74 44 -123q38 -1 78 -7.5
t60 -13.5v-115q-23 7 -65.5 13.5t-69.5 6.5q-50 0 -78.5 -26.5t-28.5 -77.5t30.5 -81.5t92.5 -30.5q24 0 71 4zM234 723h123v-130h-123v130z" />
    <glyph glyph-name="uni0640" unicode="&#x640;" horiz-adv-x="250" 
d="M0 122h250v-122h-250v122z" />
    <glyph glyph-name="uni0641" unicode="&#x641;" horiz-adv-x="1007" 
d="M40 0zM957 486v-486h-631q-87 0 -147.5 13t-99.5 55.5t-39 125.5q0 43 9.5 97.5t21.5 101.5l108 -6q-7 -56 -8 -70q-9 -74 -9 -93q0 -102 148 -102h197q-17 61 -17 138q0 91 28.5 143t86.5 74t153 22q84 0 147 -7zM631 173.5q5 -23.5 14 -51.5h178v255q-43 3 -69 3
q-54 0 -80.5 -12t-37 -42t-10.5 -91q0 -38 5 -61.5zM671 723h123v-130h-123v130z" />
    <glyph glyph-name="uni0642" unicode="&#x642;" horiz-adv-x="904" 
d="M40 0zM844 486v-524q0 -64 -29 -118t-88.5 -87t-146.5 -33h-281q-88 0 -146 33t-85.5 87.5t-27.5 119.5q0 83 41 313l125 -21l-7 -47q-14 -88 -21.5 -143t-7.5 -88q0 -58 29.5 -95t99.5 -37h281q69 0 99.5 37t30.5 93v24h-124q-79 0 -122 16.5t-64 66.5t-21 152
q0 109 25.5 165.5t81.5 77.5t159 21q82 0 147 -7zM523.5 158.5q10.5 -24.5 31.5 -30.5t64 -6h91v253q-30 2 -61 2q-53 0 -81.5 -11t-41.5 -41t-13 -88q0 -54 10.5 -78.5zM534 718h103v-125h-103v125zM686 718h103v-125h-103v125z" />
    <glyph glyph-name="uni0643" unicode="&#x643;" horiz-adv-x="803" 
d="M40 0zM723 700v-700h-397q-87 0 -147.5 13t-99.5 55t-39 125q0 70 24 170l112 -6l-5 -41q-9 -72 -9 -92q0 -102 148 -102h279v578h134zM492 385l-219 -43l-11 47l46 12q-39 33 -39 81q0 41 29.5 71t75.5 30q39 0 78 -24l-13 -60q-6 5 -17 9.5t-25 4.5q-23 0 -37.5 -15
t-14.5 -36q0 -28 24 -45l109 29z" />
    <glyph glyph-name="uni0644" unicode="&#x644;" horiz-adv-x="693" 
d="M181.5 -216.5q-66.5 31.5 -104 85.5t-37.5 119q0 64 36 287l126 -7q-12 -76 -22 -158t-10 -108q0 -35 20 -64.5t56.5 -46.5t81.5 -17t79.5 17t53 46t18.5 63v700h134v-714q0 -64 -34.5 -117.5t-98 -85t-147.5 -31.5q-85 0 -151.5 31.5z" />
    <glyph glyph-name="uni0645" unicode="&#x645;" horiz-adv-x="650" 
d="M505.5 479q55.5 -30 75 -85t19.5 -144v-250h-324q-44 0 -78 -28.5t-34 -109.5q0 -62 27 -186l-114 -4q-14 61 -25.5 132.5t-11.5 119.5q0 70 25.5 113.5t65.5 64.5q-18 76 -18 147q0 55 11 118t25 109q27 13 80 23t118 10q103 0 158.5 -30zM466 122v131q0 70 -27.5 103
t-105.5 33q-38 0 -76 -8q-14 -75 -14 -132q0 -34 4.5 -69.5t9.5 -57.5h209z" />
    <glyph glyph-name="uni0646" unicode="&#x646;" horiz-adv-x="668" 
d="M40 0zM181.5 -216.5q-66.5 31.5 -104 85.5t-37.5 119q0 64 36 287l126 -7q-12 -76 -22 -158t-10 -108q0 -35 20 -64.5t56.5 -46.5t81.5 -17t79.5 17t53 46t18.5 63v500h134v-514q0 -64 -34.5 -117.5t-98 -85t-147.5 -31.5q-85 0 -151.5 31.5zM272 630h123v-130h-123v130z
" />
    <glyph glyph-name="uni0647" unicode="&#x647;" horiz-adv-x="607" 
d="M447 506q78 -4 110 -9v-497h-249q-99 0 -156 21t-84.5 76.5t-27.5 161.5q0 101 26 154.5t84 75t163 21.5q56 0 134 -4zM188.5 173.5q14.5 -29.5 44.5 -40.5t82 -11h108v261q-50 5 -105 5t-85.5 -11t-44.5 -38.5t-14 -79.5q0 -56 14.5 -85.5z" />
    <glyph glyph-name="uni0648" unicode="&#x648;" horiz-adv-x="552" 
d="M393 512.5q65 -7.5 109 -17.5v-407q0 -82 -12.5 -153.5t-59 -127t-139.5 -55.5q-54 0 -174 19v121q120 -18 162 -18q32 0 50 11t26.5 38t8.5 77h-116q-207 0 -207 234q0 119 26.5 181t75 83.5t127.5 21.5q58 0 123 -7.5zM197 156.5q22 -34.5 88 -34.5h83v271q-38 5 -73 5
q-42 0 -67 -11.5t-39 -45t-14 -99.5q0 -51 22 -85.5z" />
    <glyph glyph-name="uni0649" unicode="&#x649;" horiz-adv-x="908" 
d="M197 -222q-68 26 -112.5 80t-44.5 132q0 35 8.5 93t18.5 107l125 -20q-7 -42 -12.5 -90.5t-5.5 -69.5q0 -38 19.5 -69t54.5 -49t81 -18h276q55 0 80.5 28.5t25.5 101.5q0 36 -28 53t-94 36q-79 22 -124.5 49t-66 64t-20.5 92q0 100 61 151t171 51q43 0 89 -5.5t135 -21.5
l-11 -109q-137 16 -199 16q-109 0 -109 -72q0 -25 18 -41t45 -26.5t91 -30.5q69 -22 107 -46t55 -59.5t17 -91.5q0 -135 -62 -198t-173 -63h-279q-69 0 -137 26z" />
    <glyph glyph-name="uni064A" unicode="&#x64a;" horiz-adv-x="908" 
d="M40 0zM197 -222q-68 26 -112.5 80t-44.5 132q0 35 8.5 93t18.5 107l125 -20q-7 -42 -12.5 -90.5t-5.5 -69.5q0 -38 19.5 -69t54.5 -49t81 -18h276q55 0 80.5 28.5t25.5 101.5q0 36 -28 53t-94 36q-79 22 -124.5 49t-66 64t-20.5 92q0 100 61 151t171 51q43 0 89 -5.5
t135 -21.5l-11 -109q-137 16 -199 16q-109 0 -109 -72q0 -25 18 -41t45 -26.5t91 -30.5q69 -22 107 -46t55 -59.5t17 -91.5q0 -135 -62 -198t-173 -63h-279q-69 0 -137 26zM326 -320h103v-125h-103v125zM478 -320h103v-125h-103v125z" />
    <glyph glyph-name="uni064B" unicode="&#x64b;" horiz-adv-x="0" 
d="M0 706zM-115 776l230 45v-70l-230 -45v70zM-115 881l230 45v-70l-230 -45v70z" />
    <glyph glyph-name="uni064C" unicode="&#x64c;" horiz-adv-x="0" 
d="M86 977q25 -35 22 -83v-57l-230 -45l-25 87l42 12l12 -42l22 6q-16 37 -16 68q0 39 23.5 64t69.5 25q55 0 80 -35zM-12 942.5q-9 -5.5 -9 -19.5q0 -19 18 -49l43 11q3 14 3 24q0 21 -10.5 30t-24.5 9q-11 0 -20 -5.5z" />
    <glyph glyph-name="uni064D" unicode="&#x64d;" horiz-adv-x="0" 
d="M0 -102zM-113 -147l230 45v-70l-230 -45v70zM-113 -252l230 45v-70l-230 -45v70z" />
    <glyph glyph-name="uni064E" unicode="&#x64e;" horiz-adv-x="0" 
d="M-115 776l230 45v-70l-230 -45v70z" />
    <glyph glyph-name="uni064F" unicode="&#x64f;" horiz-adv-x="0" 
d="M86 977q25 -35 22 -83v-57l-230 -45v49l51 14q-16 37 -16 68q0 39 23.5 64t69.5 25q55 0 80 -35zM-12 942.5q-9 -5.5 -9 -19.5q0 -19 18 -49l43 11q3 14 3 24q0 21 -10.5 30t-24.5 9q-11 0 -20 -5.5z" />
    <glyph glyph-name="uni0650" unicode="&#x650;" horiz-adv-x="0" 
d="M-113 -147l230 45v-70l-230 -45v70z" />
    <glyph glyph-name="uni0651" unicode="&#x651;" horiz-adv-x="0" 
d="M-101.5 771q-13.5 19 -13.5 61q0 37 3 49l53 11v-65q0 -26 17 -24q24 4 24 33v46l39 8v-58q0 -8 6 -11t13 -2l17 3v91l50 11q5 -25 6.5 -40.5t1.5 -34.5v-74l-66 -13q-20 -3 -38 13q-7 -15 -22 -23t-33 -8q-12 0 -22 3q-22 5 -35.5 24z" />
    <glyph glyph-name="uni0652" unicode="&#x652;" horiz-adv-x="0" 
d="M-69 722q-28 30 -28 72q0 43 28 73.5t68 30.5q41 0 69 -30.5t28 -73.5q0 -42 -28.5 -72t-68.5 -30t-68 30zM26.5 764.5q11.5 12.5 11.5 29.5q0 19 -11 31.5t-28 12.5q-16 0 -27 -12.5t-11 -31.5q0 -17 11 -29.5t27 -12.5t27.5 12.5z" />
    <glyph glyph-name="uni0653" unicode="&#x653;" horiz-adv-x="0" 
d="M36.5 768.5q-21.5 7.5 -39.5 14.5q-45 21 -55 21q-9 0 -23 -11.5t-17 -13.5l-15 -14l-23 76q18 19 39 32t42 13q20 0 73 -23q46 -20 52 -20q10 0 38 24l14 14l24 -77q-40 -43 -76 -43q-12 0 -33.5 7.5z" />
    <glyph glyph-name="uni0654" unicode="&#x654;" horiz-adv-x="0" 
d="M133 771l-219 -43l-11 47l46 12q-39 33 -39 81q0 41 29.5 71t75.5 30q39 0 78 -24l-13 -60q-6 5 -17 9.5t-25 4.5q-23 0 -37.5 -15t-14.5 -36q0 -28 24 -45l109 29z" />
    <glyph glyph-name="uni0655" unicode="&#x655;" horiz-adv-x="0" 
d="M133 -253l-219 -43l-11 47l46 12q-39 33 -39 81q0 41 29.5 71t75.5 30q39 0 78 -24l-13 -60q-6 5 -17 9.5t-25 4.5q-23 0 -37.5 -15t-14.5 -36q0 -28 24 -45l109 29z" />
    <glyph glyph-name="uni0656" unicode="&#x656;" horiz-adv-x="0" 
d="M-38 17l76 34v-223l-76 -34v223z" />
    <glyph glyph-name="uni0658" unicode="&#x658;" horiz-adv-x="0" 
d="M-70.5 693.5q-34.5 21.5 -34.5 62.5q0 20 13 108l47 -2q-5 -28 -8 -54.5t-4 -42.5q0 -20 16 -34.5t41 -14.5q24 0 40 14t16 32v184h49v-188q0 -47 -34 -66.5t-69 -19.5q-38 0 -72.5 21.5z" />
    <glyph glyph-name="uni0660" unicode="&#x660;" horiz-adv-x="325" 
d="M80 343h165v-192h-165v192z" />
    <glyph glyph-name="uni0661" unicode="&#x661;" horiz-adv-x="334" 
d="M100 660h134v-660h-134v660z" />
    <glyph glyph-name="uni0662" unicode="&#x662;" horiz-adv-x="549" 
d="M100 660h134v-121q0 -48 17 -70.5t62 -22.5q37 0 54.5 24.5t17.5 63.5v126h134v-128q0 -58 -23.5 -105.5t-68.5 -75.5t-107 -28q-30 0 -50 5.5t-36 16.5v-345h-134v660z" />
    <glyph glyph-name="uni0663" unicode="&#x663;" horiz-adv-x="615" 
d="M100 660h136v-125q0 -41 11.5 -64t24.5 -23q12 0 22 22t10 62v128h102v-128q0 -42 6.5 -63t29.5 -21t31.5 22t8.5 63v127h123v-129q0 -97 -42 -151t-119 -54q-33 0 -52.5 11t-38.5 36q-18 -24 -35.5 -35.5t-40.5 -11.5q-14 0 -23.5 4t-19.5 11v-341h-134v660z" />
    <glyph glyph-name="uni0664" unicode="&#x664;" horiz-adv-x="465" 
d="M415 122v-122h-158q-45 0 -90 13.5t-76 45.5t-31 82q0 48 27.5 90t64 70.5t65.5 40.5q-71 11 -104.5 55t-33.5 95q0 50 32 89.5t88 61.5t124 22q28 0 59 -4l-17 -109q-30 3 -47 3q-44 0 -74.5 -22t-30.5 -55q0 -23 14.5 -43.5t44.5 -20.5h99l-9 -93q-68 -19 -118 -56
t-50 -80q0 -32 27.5 -47.5t60.5 -15.5h133z" />
    <glyph glyph-name="uni0665" unicode="&#x665;" horiz-adv-x="651" 
d="M116.5 93.5q-61.5 97.5 -61.5 232.5q0 130 58.5 234t211.5 104q154 0 212.5 -104t58.5 -234q0 -135 -62 -232.5t-209 -97.5t-208.5 97.5zM431 179q31 62 31 148q0 83 -29.5 149.5t-107.5 66.5q-77 0 -106.5 -66.5t-29.5 -149.5q0 -86 31 -148t105 -62q75 0 106 62z" />
    <glyph glyph-name="uni0666" unicode="&#x666;" horiz-adv-x="471" 
d="M237 534h-227v126h361v-660h-134v534z" />
    <glyph glyph-name="uni0667" unicode="&#x667;" horiz-adv-x="601" 
d="M10 660h147l52 -194l90 -336h2l147 530h143l-223 -660h-142z" />
    <glyph glyph-name="uni0668" unicode="&#x668;" horiz-adv-x="601" 
d="M226 660h142l223 -660h-143l-147 530h-2l-90 -336l-52 -194h-147z" />
    <glyph glyph-name="uni0669" unicode="&#x669;" horiz-adv-x="593" 
d="M359 256q-48 -9 -98 -9q-112 0 -181.5 47.5t-69.5 151.5q0 97 68 155.5t211 58.5q50 0 107 -7.5t97 -16.5v-636h-134v256zM359 384v142q-36 8 -81 8q-83 0 -108.5 -22.5t-25.5 -53.5q0 -36 24 -60.5t94 -24.5q44 0 97 11z" />
    <glyph glyph-name="uni066A" unicode="&#x66a;" 
d="M14 0zM125 -8l235 707l73 -26l-235 -705zM14 527q0 145 120 145t120 -145q0 -146 -120 -146t-120 146zM156 527q0 65 -22 65t-22 -65q0 -66 22 -66t22 66zM306 134q0 145 120 145t120 -145q0 -146 -120 -146t-120 146zM448 134q0 65 -22 65t-22 -65q0 -66 22 -66t22 66z
" />
    <glyph glyph-name="uni066B" unicode="&#x66b;" horiz-adv-x="263" 
d="M70 137h148l-90 -260h-108z" />
    <glyph glyph-name="uni066C" unicode="&#x66c;" horiz-adv-x="158" 
d="M52 80h82l-50 -146h-60z" />
    <glyph glyph-name="uni066D" unicode="&#x66d;" horiz-adv-x="425" 
d="M190 478l-103 -79l-47 59l105 78l-102 73l46 63l101 -73l39 121l75 -25l-38 -122h123v-74h-123l38 -120l-73 -22z" />
    <glyph glyph-name="uni066E" unicode="&#x66e;" horiz-adv-x="842" 
d="M772 500v-500h-432q-87 0 -147.5 13t-99.5 55t-39 125q0 43 9.5 98.5t21.5 101.5l108 -6l-7 -63q-10 -73 -10 -100q0 -102 148 -102h314v378h134z" />
    <glyph glyph-name="uni066F" unicode="&#x66f;" horiz-adv-x="904" 
d="M844 486v-524q0 -64 -29 -118t-88.5 -87t-146.5 -33h-281q-88 0 -146 33t-85.5 87.5t-27.5 119.5q0 83 41 313l125 -21l-7 -47q-14 -88 -21.5 -143t-7.5 -88q0 -58 29.5 -95t99.5 -37h281q69 0 99.5 37t30.5 93v24h-124q-79 0 -122 16.5t-64 66.5t-21 152
q0 109 25.5 165.5t81.5 77.5t159 21q82 0 147 -7zM523.5 158.5q10.5 -24.5 31.5 -30.5t64 -6h91v253q-30 2 -61 2q-53 0 -81.5 -11t-41.5 -41t-13 -88q0 -54 10.5 -78.5z" />
    <glyph glyph-name="uni0670" unicode="&#x670;" horiz-adv-x="0" 
d="M-38 908l76 35v-224l-76 -34v223z" />
    <glyph glyph-name="uni0671" unicode="&#x671;" horiz-adv-x="304" 
d="M25 0zM80 614h134v-614h-134v614zM25 738h40q0 25 15.5 52.5t43 45.5t59.5 18q39 0 62 -28.5t23 -87.5v-62h-243v62zM217 738q0 34 -10 49t-32 15q-28 0 -49 -19t-21 -45h112z" />
    <glyph glyph-name="uni0679" unicode="&#x679;" horiz-adv-x="842" 
d="M54 0zM772 500v-500h-432q-87 0 -147.5 13t-99.5 55t-39 125q0 43 9.5 98.5t21.5 101.5l108 -6l-7 -63q-10 -73 -10 -100q0 -102 148 -102h314v378h134zM515 664q25 -24 25 -68v-96h-231v58h9v211h50v-144q17 30 40.5 46.5t49.5 16.5q32 0 57 -24zM391.5 611.5
q-23.5 -23.5 -23.5 -48.5v-5h125v38q0 17 -13 28t-34 11q-31 0 -54.5 -23.5z" />
    <glyph glyph-name="uni067E" unicode="&#x67e;" horiz-adv-x="842" 
d="M54 0zM772 500v-500h-432q-87 0 -147.5 13t-99.5 55t-39 125q0 43 9.5 98.5t21.5 101.5l108 -6l-7 -63q-10 -73 -10 -100q0 -102 148 -102h314v378h134zM293 -80h103v-120h-103v120zM445 -80h103v-120h-103v120zM373 -226h96v-112h-96v112z" />
    <glyph glyph-name="uni0686" unicode="&#x686;" horiz-adv-x="613" 
d="M194.5 -165.5q30.5 -30.5 92.5 -30.5l18 -118q-32 -2 -45 -2q-110 0 -170 64.5t-60 176.5q0 103 53.5 157.5t158.5 54.5q38 0 78.5 -7t68.5 -15v195q0 43 -18.5 64.5t-63.5 21.5q-92 -3 -160 -6l-51 -2l-4 89q52 14 126 23.5t125 9.5q94 0 136.5 -39.5t43.5 -125.5v-345
h-134q-26 8 -59.5 14t-58.5 6q-50 0 -78.5 -26.5t-28.5 -77.5t30.5 -81.5zM428 -188h-103v120h103v-120zM580 -68v-120h-103v120h103zM405 -214h96v-112h-96v112z" />
    <glyph glyph-name="uni0688" unicode="&#x688;" horiz-adv-x="525" 
d="M40 0zM367.5 483.5q60.5 -39.5 94 -118.5t33.5 -194v-171h-455v122h321v36q0 130 -49 185.5t-117 55.5h-101l-10 105q31 7 70.5 13t72.5 6q80 0 140.5 -39.5zM274 784q25 -24 25 -68v-96h-231v58h9v211h50v-144q17 30 40.5 46.5t49.5 16.5q32 0 57 -24zM150.5 731.5
q-23.5 -23.5 -23.5 -48.5v-5h125v38q0 17 -13 28t-34 11q-31 0 -54.5 -23.5z" />
    <glyph glyph-name="uni0691" unicode="&#x691;" horiz-adv-x="340" 
d="M40 0zM40 -244v120l34 -2q36 0 54 28.5t18 80.5v517h134v-494q0 -120 -41.5 -187t-125.5 -67q-13 0 -73 4zM307 757q25 -24 25 -68v-96h-231v58h9v211h50v-144q17 30 40.5 46.5t49.5 16.5q32 0 57 -24zM183.5 704.5q-23.5 -23.5 -23.5 -48.5v-5h125v38q0 17 -13 28
t-34 11q-31 0 -54.5 -23.5z" />
    <glyph glyph-name="uni0698" unicode="&#x698;" horiz-adv-x="340" 
d="M40 0zM40 -244v120l34 -2q36 0 54 28.5t18 80.5v517h134v-494q0 -120 -41.5 -187t-125.5 -67q-13 0 -73 4zM165 851h96v-112h-96v112zM85 713h103v-120h-103v120zM237 713h103v-120h-103v120z" />
    <glyph glyph-name="uni06A1" unicode="&#x6a1;" horiz-adv-x="1007" 
d="M957 486v-486h-631q-87 0 -147.5 13t-99.5 55.5t-39 125.5q0 43 9.5 97.5t21.5 101.5l108 -6q-7 -56 -8 -70q-9 -74 -9 -93q0 -102 148 -102h197q-17 61 -17 138q0 91 28.5 143t86.5 74t153 22q84 0 147 -7zM631 173.5q5 -23.5 14 -51.5h178v255q-43 3 -69 3
q-54 0 -80.5 -12t-37 -42t-10.5 -91q0 -38 5 -61.5z" />
    <glyph glyph-name="uni06A4" unicode="&#x6a4;" horiz-adv-x="1007" 
d="M40 0zM957 486v-486h-631q-87 0 -147.5 13t-99.5 55.5t-39 125.5q0 43 9.5 97.5t21.5 101.5l108 -6q-7 -56 -8 -70q-9 -74 -9 -93q0 -102 148 -102h197q-17 61 -17 138q0 91 28.5 143t86.5 74t153 22q84 0 147 -7zM631 173.5q5 -23.5 14 -51.5h178v255q-43 3 -69 3
q-54 0 -80.5 -12t-37 -42t-10.5 -91q0 -38 5 -61.5zM685 851h96v-112h-96v112zM605 713h103v-120h-103v120zM757 713h103v-120h-103v120z" />
    <glyph glyph-name="uni06A9" unicode="&#x6a9;" horiz-adv-x="875" 
d="M773 442q43 -43 57.5 -97t14.5 -101v-244h-519q-87 0 -147.5 13t-99.5 55t-39 125q0 70 24 170l112 -6l-5 -41q-9 -72 -9 -92q0 -102 148 -102h401v123q0 52 -24.5 85t-58.5 33h-268l-69 93l60 117q20 40 54 85.5t64 78.5l99 -56q-52 -74 -98 -161l-18 -35h198
q80 0 123 -43z" />
    <glyph glyph-name="uni06AF" unicode="&#x6af;" horiz-adv-x="875" 
d="M40 0zM773 442q43 -43 57.5 -97t14.5 -101v-244h-519q-87 0 -147.5 13t-99.5 55t-39 125q0 70 24 170l112 -6l-5 -41q-9 -72 -9 -92q0 -102 148 -102h401v123q0 52 -24.5 85t-58.5 33h-268l-69 93l60 117q20 40 54 85.5t64 78.5l99 -56q-52 -74 -98 -161l-18 -35h198
q80 0 123 -43zM204 579l36 71q35 67 106 157l82 -46q-28 -33 -62 -81t-55 -88l-46 -94z" />
    <glyph glyph-name="uni06BA" unicode="&#x6ba;" horiz-adv-x="668" 
d="M181.5 -216.5q-66.5 31.5 -104 85.5t-37.5 119q0 64 36 287l126 -7q-12 -76 -22 -158t-10 -108q0 -35 20 -64.5t56.5 -46.5t81.5 -17t79.5 17t53 46t18.5 63v500h134v-514q0 -64 -34.5 -117.5t-98 -85t-147.5 -31.5q-85 0 -151.5 31.5z" />
    <glyph glyph-name="uni06BE" unicode="&#x6be;" horiz-adv-x="779" 
d="M571.5 532.5q77.5 -45.5 117.5 -127t40 -188.5v-217h-689v122h47v19q0 53 26.5 101t74.5 77.5t107 29.5t106 -29.5t73.5 -77.5t26.5 -100v-20h94v95q0 136 -73.5 188t-166.5 52q-41 0 -93.5 -7.5t-138.5 -21.5l-11 107q76 19 144 31t129 12q109 0 186.5 -45.5z
M242.5 202.5q-20.5 -24.5 -20.5 -59.5v-21h145v22q0 35 -21 59t-52 24t-51.5 -24.5z" />
    <glyph glyph-name="uni06C1" unicode="&#x6c1;" horiz-adv-x="607" 
d="M40 0zM447 506q78 -4 110 -9v-497h-249q-99 0 -156 21t-84.5 76.5t-27.5 161.5q0 101 26 154.5t84 75t163 21.5q56 0 134 -4zM188.5 173.5q14.5 -29.5 44.5 -40.5t82 -11h108v261q-50 5 -105 5t-85.5 -11t-44.5 -38.5t-14 -79.5q0 -56 14.5 -85.5z" />
    <glyph glyph-name="uni06C2" unicode="&#x6c2;" horiz-adv-x="607" 
d="M40 0zM447 506q78 -4 110 -9v-497h-249q-99 0 -156 21t-84.5 76.5t-27.5 161.5q0 101 26 154.5t84 75t163 21.5q56 0 134 -4zM188.5 173.5q14.5 -29.5 44.5 -40.5t82 -11h108v261q-50 5 -105 5t-85.5 -11t-44.5 -38.5t-14 -79.5q0 -56 14.5 -85.5zM435 658l-219 -43
l-11 47l46 12q-39 33 -39 81q0 41 29.5 71t75.5 30q39 0 78 -24l-13 -60q-6 5 -17 9.5t-25 4.5q-23 0 -37.5 -15t-14.5 -36q0 -28 24 -45l109 29z" />
    <glyph glyph-name="uni06C3" unicode="&#x6c3;" horiz-adv-x="607" 
d="M40 0zM447 506q78 -4 110 -9v-497h-249q-99 0 -156 21t-84.5 76.5t-27.5 161.5q0 101 26 154.5t84 75t163 21.5q56 0 134 -4zM188.5 173.5q14.5 -29.5 44.5 -40.5t82 -11h108v261q-50 5 -105 5t-85.5 -11t-44.5 -38.5t-14 -79.5q0 -56 14.5 -85.5zM197 718h103v-125h-103
v125zM349 718h103v-125h-103v125z" />
    <glyph glyph-name="uni06CC" unicode="&#x6cc;" horiz-adv-x="908" 
d="M40 0zM197 -222q-68 26 -112.5 80t-44.5 132q0 35 8.5 93t18.5 107l125 -20q-7 -42 -12.5 -90.5t-5.5 -69.5q0 -38 19.5 -69t54.5 -49t81 -18h276q55 0 80.5 28.5t25.5 101.5q0 36 -28 53t-94 36q-79 22 -124.5 49t-66 64t-20.5 92q0 100 61 151t171 51q43 0 89 -5.5
t135 -21.5l-11 -109q-137 16 -199 16q-109 0 -109 -72q0 -25 18 -41t45 -26.5t91 -30.5q69 -22 107 -46t55 -59.5t17 -91.5q0 -135 -62 -198t-173 -63h-279q-69 0 -137 26z" />
    <glyph glyph-name="uni06D2" unicode="&#x6d2;" horiz-adv-x="750" 
d="M700 381v-134q0 -247 -269 -247h-259q-2 -14 -2 -25q0 -43 17 -64.5t45 -27.5t73 -6h317v-122h-296q-97 0 -156 12.5t-95.5 58t-36.5 138.5q0 46 9 89t20 69h357q62 0 93 19t40 45t9 60v135h134z" />
    <glyph glyph-name="uni06D3" unicode="&#x6d3;" horiz-adv-x="750" 
d="M38 0zM700 381v-134q0 -247 -269 -247h-259q-2 -14 -2 -25q0 -43 17 -64.5t45 -27.5t73 -6h317v-122h-296q-97 0 -156 12.5t-95.5 58t-36.5 138.5q0 46 9 89t20 69h357q62 0 93 19t40 45t9 60v135h134zM320 275l-219 -43l-11 47l46 12q-39 33 -39 81q0 41 29.5 71
t75.5 30q39 0 78 -24l-13 -60q-6 5 -17 9.5t-25 4.5q-23 0 -37.5 -15t-14.5 -36q0 -28 24 -45l109 29z" />
    <glyph glyph-name="uni06D4" unicode="&#x6d4;" horiz-adv-x="256" 
d="M56 166h144v-166h-144v166z" />
    <glyph glyph-name="uni06F0" unicode="&#x6f0;" horiz-adv-x="325" 
d="M80 151zM80 343h165v-192h-165v192z" />
    <glyph glyph-name="uni06F1" unicode="&#x6f1;" horiz-adv-x="334" 
d="M100 0zM100 660h134v-660h-134v660z" />
    <glyph glyph-name="uni06F2" unicode="&#x6f2;" horiz-adv-x="549" 
d="M100 0zM100 660h134v-121q0 -48 17 -70.5t62 -22.5q37 0 54.5 24.5t17.5 63.5v126h134v-128q0 -58 -23.5 -105.5t-68.5 -75.5t-107 -28q-30 0 -50 5.5t-36 16.5v-345h-134v660z" />
    <glyph glyph-name="uni06F3" unicode="&#x6f3;" horiz-adv-x="615" 
d="M100 0zM100 660h136v-125q0 -41 11.5 -64t24.5 -23q12 0 22 22t10 62v128h102v-128q0 -42 6.5 -63t29.5 -21t31.5 22t8.5 63v127h123v-129q0 -97 -42 -151t-119 -54q-33 0 -52.5 11t-38.5 36q-18 -24 -35.5 -35.5t-40.5 -11.5q-14 0 -23.5 4t-19.5 11v-341h-134v660z" />
    <glyph glyph-name="uni06F4" unicode="&#x6f4;" horiz-adv-x="625" 
d="M615 600v-68q0 -95 -57 -152t-188 -57q-57 0 -86 5t-50 17v-345h-134v660h134v-121q0 -30 8.5 -49t30.5 -30q-1 4 -4.5 20t-3.5 34q0 90 104 90q29 0 85 -8l-5 -70q-22 4 -45 4q-55 0 -55 -48q0 -18 7 -36h5q66 0 93 24t27 64v66h134z" />
    <glyph glyph-name="uni06F5" unicode="&#x6f5;" horiz-adv-x="641" 
d="M140 15q-37 19 -63.5 68t-26.5 131q0 110 48.5 206.5t131.5 155.5l-83 66l75 90q87 -38 172 -109.5t141 -169.5t56 -210q0 -89 -36 -168t-133 -79q-67 0 -104 48q-42 -48 -103 -48q-38 0 -75 19zM241.5 129.5q5.5 7.5 14.5 25.5q13 27 26.5 42.5t38.5 15.5q26 0 41 -16.5
t27 -44.5q8 -16 12.5 -23t11.5 -7q8 0 18.5 11.5t18 35t7.5 57.5q0 82 -39.5 153t-82.5 115q-29 -17 -64 -52.5t-61 -90.5t-26 -122q0 -50 14 -78.5t30 -28.5q8 0 13.5 7.5z" />
    <glyph glyph-name="uni06F6" unicode="&#x6f6;" horiz-adv-x="432" 
d="M227.5 434.5q14.5 -20.5 44.5 -20.5h99l-9 -93q-68 -19 -118 -56t-50 -80l-134 -44q0 48 27.5 90t64 70.5t65.5 40.5q-71 11 -104.5 55t-33.5 95q0 50 32 89.5t88 61.5t124 22q28 0 59 -4l-17 -109q-30 3 -47 3q-44 0 -74.5 -22t-30.5 -55q0 -23 14.5 -43.5z" />
    <glyph glyph-name="uni06F7" unicode="&#x6f7;" horiz-adv-x="601" 
d="M10 0zM10 660h147l52 -194l90 -336h2l147 530h143l-223 -660h-142z" />
    <glyph glyph-name="uni06F8" unicode="&#x6f8;" horiz-adv-x="601" 
d="M10 0zM226 660h142l223 -660h-143l-147 530h-2l-90 -336l-52 -194h-147z" />
    <glyph glyph-name="uni06F9" unicode="&#x6f9;" horiz-adv-x="593" 
d="M10 0zM359 256q-48 -9 -98 -9q-112 0 -181.5 47.5t-69.5 151.5q0 97 68 155.5t211 58.5q50 0 107 -7.5t97 -16.5v-636h-134v256zM359 384v142q-36 8 -81 8q-83 0 -108.5 -22.5t-25.5 -53.5q0 -36 24 -60.5t94 -24.5q44 0 97 11z" />
    <glyph glyph-name="Wgrave" unicode="&#x1e80;" horiz-adv-x="930" 
d="M19 0zM19 680h145l84 -562h15l122 562h160l122 -562h15l84 562h145l-130 -680h-209l-107 517l-107 -517h-209zM327 825l41 120l252 -106l-33 -93z" />
    <glyph glyph-name="wgrave" unicode="&#x1e81;" horiz-adv-x="772" 
d="M24 0zM24 500h132l61 -386h24l76 376h138l76 -376h24l61 386h132l-95 -500h-210l-57 306l-57 -306h-210zM224 638l40 115l252 -102l-30 -87z" />
    <glyph glyph-name="Wacute" unicode="&#x1e82;" horiz-adv-x="930" 
d="M19 0zM19 680h145l84 -562h15l122 562h160l122 -562h15l84 562h145l-130 -680h-209l-107 517l-107 -517h-209zM329 839l252 106l41 -120l-260 -79z" />
    <glyph glyph-name="wacute" unicode="&#x1e83;" horiz-adv-x="772" 
d="M24 0zM24 500h132l61 -386h24l76 376h138l76 -376h24l61 386h132l-95 -500h-210l-57 306l-57 -306h-210zM251 651l252 102l40 -115l-262 -74z" />
    <glyph glyph-name="Wdieresis" unicode="&#x1e84;" horiz-adv-x="930" 
d="M19 0zM19 680h145l84 -562h15l122 562h160l122 -562h15l84 562h145l-130 -680h-209l-107 517l-107 -517h-209zM292 896h128v-132h-128v132zM508 896h128v-132h-128v132z" />
    <glyph glyph-name="wdieresis" unicode="&#x1e85;" horiz-adv-x="772" 
d="M24 0zM24 500h132l61 -386h24l76 376h138l76 -376h24l61 386h132l-95 -500h-210l-57 306l-57 -306h-210zM216 728h128v-132h-128v132zM432 728h128v-132h-128v132z" />
    <glyph glyph-name="uni1EAB" unicode="&#x1eab;" horiz-adv-x="511" 
d="M29 0zM29 152q0 78 41.5 112.5t133.5 40.5l107 8v31q0 30 -13.5 42t-45.5 12q-33 0 -91 -2.5t-97 -5.5l-4 93q108 29 204 29t138.5 -40t42.5 -128v-208q2 -25 8.5 -34t24.5 -13l-4 -101q-52 0 -82.5 7t-60.5 28q-73 -35 -147 -35q-155 0 -155 164zM296 109l15 4v107
l-91 -8q-56 -5 -56 -60t49 -55q38 0 83 12zM192 701h84l128 -151h-123l-46 67l-46 -67h-123zM228 763q-46 18 -59 18q-28 0 -66 -23l-13 -8l-29 75q21 24 51.5 42t52.5 18q23 0 69 -18q47 -18 58 -18q25 0 66 25l14 9l29 -76q-16 -20 -47.5 -41t-56.5 -21q-22 0 -69 18z" />
    <glyph glyph-name="uni1EB0" unicode="&#x1eb0;" horiz-adv-x="600" 
d="M17 0zM420 123h-238l-27 -123h-138l153 680h262l153 -680h-138zM325 566h-48l-69 -323h186zM173.5 759q-46.5 40 -55.5 111h121q4 -25 21.5 -41t44.5 -16t44.5 16t20.5 41h121q-9 -71 -56 -111t-131 -40t-130.5 40zM103 999l41 120l252 -106l-33 -93z" />
    <glyph glyph-name="uni1EC5" unicode="&#x1ec5;" horiz-adv-x="511" 
d="M37 0zM89 47q-52 59 -52 191q0 138 54.5 206t169.5 68q106 0 160.5 -56.5t54.5 -169.5l-10 -93h-294q2 -35 12.5 -53.5t34 -26t65.5 -7.5q33 0 79 2t67 4l28 3l2 -99q-113 -28 -202 -28q-117 0 -169 59zM344 295q0 60 -18.5 83.5t-65.5 23.5q-48 0 -68 -24.5t-21 -82.5
h173zM221 701h84l128 -151h-123l-46 67l-46 -67h-123zM250 763q-46 18 -59 18q-28 0 -66 -23l-13 -8l-29 75q21 24 51.5 42t52.5 18q23 0 69 -18q47 -18 58 -18q25 0 66 25l14 9l29 -76q-16 -20 -47.5 -41t-56.5 -21q-22 0 -69 18z" />
    <glyph glyph-name="uni1ED7" unicode="&#x1ed7;" horiz-adv-x="532" 
d="M36 0zM94.5 56.5q-58.5 68.5 -58.5 194.5q0 125 58.5 193t171.5 68t171.5 -68t58.5 -193q0 -126 -58.5 -194.5t-171.5 -68.5t-171.5 68.5zM337 137q23 35 23 114t-23 113t-71 34t-71 -34t-23 -113t23 -114t71 -35t71 35zM224 701h84l128 -151h-123l-46 67l-46 -67h-123z
M250 763q-46 18 -59 18q-28 0 -66 -23l-13 -8l-29 75q21 24 51.5 42t52.5 18q23 0 69 -18q47 -18 58 -18q25 0 66 25l14 9l29 -76q-16 -20 -47.5 -41t-56.5 -21q-22 0 -69 18z" />
    <glyph glyph-name="Ygrave" unicode="&#x1ef2;" horiz-adv-x="557" 
d="M0 0zM210 275l-210 405h153l125 -271l125 271h153l-208 -405v-275h-138v275zM141 825l41 120l252 -106l-33 -93z" />
    <glyph glyph-name="ygrave" unicode="&#x1ef3;" horiz-adv-x="500" 
d="M16 0zM233 0h-94l-123 500h132l91 -386h23l91 386h132l-176 -710h-131zM80 638l40 115l252 -102l-30 -87z" />
    <glyph glyph-name="uni1EF8" unicode="&#x1ef8;" horiz-adv-x="541" 
d="M0 0zM270 781q-66 23 -77 23q-24 0 -67 -32l-14 -10l-29 96q22 26 53.5 45t59.5 19q27 0 90 -23t72 -23q23 0 67 32l14 10l29 -97q-17 -19 -49 -41t-60 -22q-25 0 -89 23zM210 275l-210 405h153l125 -271l125 271h153l-208 -405v-275h-138v275z" />
    <glyph glyph-name="uni1EF9" unicode="&#x1ef9;" horiz-adv-x="500" 
d="M16 0zM245 603q-46 18 -59 18q-28 0 -66 -23l-13 -8l-29 75q21 24 51.5 42t52.5 18q23 0 69 -18q47 -18 58 -18q25 0 66 25l14 9l29 -76q-16 -20 -47.5 -41t-56.5 -21q-22 0 -69 18zM233 0h-94l-123 500h132l91 -386h23l91 386h132l-176 -710h-131z" />
    <glyph glyph-name="endash" unicode="&#x2013;" horiz-adv-x="614" 
d="M57 323h500v-114h-500v114z" />
    <glyph glyph-name="emdash" unicode="&#x2014;" horiz-adv-x="1114" 
d="M57 323h1000v-114h-1000v114z" />
    <glyph glyph-name="quoteleft" unicode="&#x2018;" horiz-adv-x="259" 
d="M120 679h103l-48 -247h-140z" />
    <glyph glyph-name="quoteright" unicode="&#x2019;" horiz-adv-x="254" 
d="M144 433h-103l48 247h140z" />
    <glyph glyph-name="quotesinglbase" unicode="&#x201a;" horiz-adv-x="256" 
d="M126 -117h-103l48 247h140z" />
    <glyph glyph-name="quotedblleft" unicode="&#x201c;" horiz-adv-x="443" 
d="M120 679h103l-48 -247h-140zM304 679h103l-48 -247h-140z" />
    <glyph glyph-name="quotedblright" unicode="&#x201d;" horiz-adv-x="439" 
d="M144 433h-103l48 247h140zM328 433h-103l48 247h140z" />
    <glyph glyph-name="quotedblbase" unicode="&#x201e;" horiz-adv-x="421" 
d="M78 117h103l-48 -247h-140zM262 117h103l-48 -247h-140z" />
    <glyph glyph-name="dagger" unicode="&#x2020;" horiz-adv-x="480" 
d="M173 386h-145v114h145v180h134v-180h145v-114h-145l-10 -457h-114z" />
    <glyph glyph-name="daggerdbl" unicode="&#x2021;" horiz-adv-x="512" 
d="M189 109h-145v114h145v163h-145v114h145v180h134v-180h144v-114h-144v-163h145v-114h-145v-180h-134v180z" />
    <glyph glyph-name="bullet" unicode="&#x2022;" horiz-adv-x="450" 
d="M100 380h250v-280h-250v280z" />
    <glyph glyph-name="ellipsis" unicode="&#x2026;" horiz-adv-x="766" 
d="M56 166h144v-166h-144v166zM311 166h144v-166h-144v166zM566 166h144v-166h-144v166z" />
    <glyph glyph-name="perthousand" unicode="&#x2030;" horiz-adv-x="845" 
d="M140 -8l235 707l73 -26l-235 -705zM29 527q0 145 120 145t120 -145q0 -146 -120 -146t-120 146zM171 527q0 65 -22 65t-22 -65q0 -66 22 -66t22 66zM321 134q0 145 120 145t120 -145q0 -146 -120 -146t-120 146zM578 134q0 145 120 145t120 -145q0 -146 -120 -146
t-120 146zM463 134q0 65 -22 65t-22 -65q0 -66 22 -66t22 66zM720 134q0 65 -22 65t-22 -65q0 -66 22 -66t22 66z" />
    <glyph glyph-name="guilsinglleft" unicode="&#x2039;" horiz-adv-x="318" 
d="M40 194v96l223 164v-135l-109 -75l109 -86v-135z" />
    <glyph glyph-name="guilsinglright" unicode="&#x203a;" horiz-adv-x="318" 
d="M54 168l109 86l-109 75v135l223 -164v-96l-223 -171v135z" />
    <glyph glyph-name="fraction" unicode="&#x2044;" horiz-adv-x="10" 
d="M-224 29l393 632l53 -35l-393 -633z" />
    <glyph glyph-name="uni2070" unicode="&#x2070;" horiz-adv-x="280" 
d="M71.5 479q-27.5 12 -44 48.5t-16.5 106.5q0 97 34 132t95 35t95 -35t34 -132q0 -70 -16.5 -106.5t-44 -48.5t-68.5 -12t-68.5 12zM154 576q5 14 5 58q0 72 -19 72q-9 0 -14 -15t-5 -57q0 -44 4.5 -58t14.5 -14q9 0 14 14z" />
    <glyph glyph-name="uni2074" unicode="&#x2074;" horiz-adv-x="280" 
d="M146 513h-132v88l39 189h118l-52 -182h27l14 90h91v-90h11v-95h-11v-35h-105v35z" />
    </font>
</defs>
</svg>
